Вход на сайт

Имя:
Пароль:

· Забыли пароль?
logo
Портал Форум
Регистрация Вход


Статистика раздачи

Размер: 313 MB | Зарегистрирован: 13 лет | Торрент скачан: 0 раз
new_topic  reply_topic

  (Pop) Маски - Сделай погромче!!! 2005, APE (image + .cue)

pic
Год выпуска: 2005
Страна: Германия
Производитель: Германия
Жанр: Pop
Номер #: STCD 0303 [ NrO Records ]
Продолжительность: ~ 46 минут


Тип контента: альбом
Аудио кодек: APE
Тип рипа: (image + .cue)
Битрейт аудио: lossless


Треклист:

01. Замело
02. Бом - бим - бом
03. Лишь гудки
04. Фотки
05. Шаг за шагом
06. Солнечный зайчик
07. Снежинка
08. За солнцем вперед
09. Ромка
10. Веснушки
11. Город

Код:

Exact Audio Copy V0.99 prebeta 1 from 25. May 2007

Отчёт EAC об извлечении, выполненном 11. октября 2008, 15:07

Маски / Сделай погромче!!!

Дисковод: PLEXTOR DVDR   PX-800A   Adapter: 0  ID: 0

Режим чтения                 : Достоверность
Использование точного потока : Да
Отключение кэша аудио        : Да
Использование указателей C2  : Нет

Коррекция смещения при чтении                 : 48
Способность читать области Lead-in и Lead-out : Нет
Заполнение пропущенных сэмплов тишиной        : Да
Удаление блоков с тишиной в начале и конце    : Нет
Интерфейс                                     : Встроенный Win32-интерфейс для Win NT/2000

Выходной формат : Внутренние WAV-операции
Формат сэмплов  : 44.100 Гц; 16 бит; стерео

TOC извлечённого CD

     Трек |   Старт  | Длительность | Начальный сектор | Конечный сектор
    ---------------------------------------------------------------------
       1  |  0:00.00 |    3:40.37   |           0      |      16536
       2  |  3:40.37 |    4:17.18   |       16537      |      35829
       3  |  7:57.55 |    4:07.46   |       35830      |      54400
       4  | 12:05.26 |    4:40.42   |       54401      |      75442
       5  | 16:45.68 |    4:33.35   |       75443      |      95952
       6  | 21:19.28 |    4:25.63   |       95953      |     115890
       7  | 25:45.16 |    3:49.40   |      115891      |     133105
       8  | 29:34.56 |    4:15.36   |      133106      |     152266
       9  | 33:50.17 |    3:39.58   |      152267      |     168749
      10  | 37:30.00 |    4:02.35   |      168750      |     186934
      11  | 41:32.35 |    4:09.18   |      186935      |     205627

Характеристики диапазона извлечения и сообщения об ошибках

Выбранный диапазон

     Имя файла C:\Temp\Образы\Маски - Сделай погромче!!!.wav

     Пиковый уровень 98.8 %
     Качество диапазона 100.0 %
     CRC копии 8F3B43EF
     Копирование... OK

Ошибок не произошло

Конец отчёта
Данный материал из частной коллекции пользователя и носит характер объявления. Если вас заинтересовала данная тема, вы можете связаться с автором сообщения и обсудить детали обмена. Для более подробной информации прочтите правила обмена.

Страница 1 из 1

new_topic  reply_topic

Текущее время: 04-Дек 21:28
Часовой пояс: GMT + 4

m Сделано с любовью PR-CY.ru Каталог webplus.info