Вход на сайт

Имя:
Пароль:

· Забыли пароль?
logo
Портал Форум
Регистрация Вход


Статистика раздачи

Размер: 472 MB | Зарегистрирован: 11 лет | Торрент скачан: 0 раз
new_topic  reply_topic

  (Pop) De Maar & Dj Unix - Королева Dискотек 2002, APE (image + .cue)

pic
Год выпуска: 2002
Страна: Германия
Жанр: Pop
Продолжительность: ~ 69 минут


Тип издания: альбом
Аудио кодек: APE
Тип рипа: (image + .cue)
Битрейт аудио: lossless


Трэклист:
01. Королева дискотек
02. Я скучаю
03. Ты знай!
04. Девочка-лето
05. Знаешь, скажешь
06. Пока, пока
07. Говори люблю
08. SMS
09. 1,2,3,4,5
10. Снегопад
11. Королева дискотек (Ibiza Club RMX)
12. Королева дискотек (Dream Fly RMX)
13. Девочка-лето (Club RMX)
14. Королева дискотек (Karaoke)
15. Пока, пока (Karaoke)

Код:

Exact Audio Copy V0.99 prebeta 5 from 4. May 2009

Отчёт EAC об извлечении, выполненном 27. августа 2010, 5:25

De Maar & Dj Unix / Королева Dискотек

Дисковод: PLEXTOR DVDR   PX-800A   Adapter: 0  ID: 0

Режим чтения                 : Достоверность
Использование точного потока : Да
Отключение кэша аудио        : Да
Использование указателей C2  : Нет

Коррекция смещения при чтении                     : 48
Способность читать области Lead-in и Lead-out     : Нет
Заполнение пропущенных сэмплов тишиной            : Да
Удаление блоков с тишиной в начале и конце        : Нет
При вычислениях CRC использовались нулевые сэмплы : Да
Интерфейс                                         : Встроенный Win32-интерфейс для Win NT/2000

Выходной формат : Внутренние WAV-операции
Формат сэмплов  : 44.100 Гц; 16 бит; стерео

TOC извлечённого CD

     Трек |   Старт  | Длительность | Начальный сектор | Конечный сектор
    ---------------------------------------------------------------------
       1  |  0:00.00 |    3:54.38   |           0      |      17587     
       2  |  3:54.38 |    5:10.55   |       17588      |      40892     
       3  |  9:05.18 |    4:02.03   |       40893      |      59045     
       4  | 13:07.21 |    4:46.26   |       59046      |      80521     
       5  | 17:53.47 |    4:52.74   |       80522      |     102495     
       6  | 22:46.46 |    4:51.52   |      102496      |     124372     
       7  | 27:38.23 |    4:44.59   |      124373      |     145731     
       8  | 32:23.07 |    4:18.03   |      145732      |     165084     
       9  | 36:41.10 |    3:57.16   |      165085      |     182875     
      10  | 40:38.26 |    4:51.33   |      182876      |     204733     
      11  | 45:29.59 |    5:14.69   |      204734      |     228352     
      12  | 50:44.53 |    5:00.52   |      228353      |     250904     
      13  | 55:45.30 |    4:23.33   |      250905      |     270662     
      14  | 60:08.63 |    3:56.53   |      270663      |     288415     
      15  | 64:05.41 |    4:49.61   |      288416      |     310151     

Характеристики диапазона извлечения и сообщения об ошибках

Выбранный диапазон

     Имя файла C:\Temp\Образы\De Maar & Dj Unix - Королева Dискотек.wav

     Пиковый уровень 100.0 %
     Качество диапазона 99.9 %
     CRC копии B7626E11
     Копирование... OK

Ошибок не произошло

Конец отчёта
Данный материал из частной коллекции пользователя и носит характер объявления. Если вас заинтересовала данная тема, вы можете связаться с автором сообщения и обсудить детали обмена. Для более подробной информации прочтите правила обмена.

Страница 1 из 1

new_topic  reply_topic

Текущее время: 04-Дек 21:12
Часовой пояс: GMT + 4

m Сделано с любовью PR-CY.ru Каталог webplus.info