Вход на сайт

Имя:
Пароль:

· Забыли пароль?
logo
Портал Форум
Регистрация Вход


new_topic  reply_topic

  (Pop) Олег Ай - Танцуй со мной! 2003, APE (image + .cue)

pic
Год выпуска: 2003
Страна: Германия
Жанр: Pop
Продолжительность: ~ 55 минут


Тип издания: альбом
Аудио кодек: APE
Тип рипа: (image + .cue)
Битрейт аудио: lossless


Трэклист:
01. Первая любовь
02. Желанная
03. Окольцованная птица
04. Олечка-технополечка
05. Ты-мираж!
06. День рождение у тебя...
07. Чужая невеста
08. Карагандинская попутная
09. Хальт,хальт - хэнде хох
10. Mercedes
11. Чукча-кучерявый
12. Айнс, цвай (Eins, Zwei)
13. Карагандинская попутная (караоке)

Код:

Exact Audio Copy V0.99 prebeta 5 from 4. May 2009

Отчёт EAC об извлечении, выполненном 8. ноября 2009, 12:57

Олег Ай / Танцуй со мной!

Дисковод: PLEXTOR DVDR   PX-800A   Adapter: 0  ID: 0

Режим чтения                 : Достоверность
Использование точного потока : Да
Отключение кэша аудио        : Да
Использование указателей C2  : Нет

Коррекция смещения при чтении                     : 48
Способность читать области Lead-in и Lead-out     : Нет
Заполнение пропущенных сэмплов тишиной            : Да
Удаление блоков с тишиной в начале и конце        : Нет
При вычислениях CRC использовались нулевые сэмплы : Да
Интерфейс                                         : Встроенный Win32-интерфейс для Win NT/2000

Выходной формат : Внутренние WAV-операции
Формат сэмплов  : 44.100 Гц; 16 бит; стерео

TOC извлечённого CD

     Трек |   Старт  | Длительность | Начальный сектор | Конечный сектор
    ---------------------------------------------------------------------
       1  |  0:00.00 |    4:25.11   |           0      |      19885     
       2  |  4:25.11 |    4:54.72   |       19886      |      42007     
       3  |  9:20.08 |    4:21.18   |       42008      |      61600     
       4  | 13:41.26 |    3:53.29   |       61601      |      79104     
       5  | 17:34.55 |    3:34.47   |       79105      |      95201     
       6  | 21:09.27 |    4:47.04   |       95202      |     116730     
       7  | 25:56.31 |    5:07.61   |      116731      |     139816     
       8  | 31:04.17 |    3:47.27   |      139817      |     156868     
       9  | 34:51.44 |    3:56.72   |      156869      |     174640     
      10  | 38:48.41 |    3:52.24   |      174641      |     192064     
      11  | 42:40.65 |    4:14.66   |      192065      |     211180     
      12  | 46:55.56 |    4:00.19   |      211181      |     229199     
      13  | 50:56.00 |    3:48.14   |      229200      |     246313     

Характеристики диапазона извлечения и сообщения об ошибках

Выбранный диапазон

     Имя файла C:\Temp\Образы\Олег Ай - Танцуй со мной!.wav

     Пиковый уровень 99.4 %
     Качество диапазона 100.0 %
     CRC теста DADE4F40
     CRC копии DADE4F40
     Копирование... OK

Ошибок не произошло

Конец отчёта
торренты залью чуть позже

Страница 1 из 1

new_topic  reply_topic

Текущее время: 04-Дек 20:14
Часовой пояс: GMT + 4

m Сделано с любовью PR-CY.ru Каталог webplus.info