Вход на сайт

Имя:
Пароль:

· Забыли пароль?
logo
Портал Форум
Регистрация Вход


new_topic  reply_topic

  (Pop) Союз 45, non-stop - 2009, APE (image + .cue)

pic
Год выпуска: 2009
Страна: Россия
Жанр: Pop
Номер #: SZCD 3093-05 (Студия "СОЮЗ")
Продолжительность: 1:19:48

Тип издания: сборник
Аудио кодек: APE
Тип рипа: (image + .cue)
Битрейт аудио: lossless

1. Николай Басков И Оксана Федорова - Права Любовь (3:25)
2. Инь-Янь - Камикадзе (2:42)
3. Потап И Настя Каменских - Кредит (3:37)
4. Юлия Савичева - Настя (4:03)
5. Рождество - Карандаши (2:54)
6. Фабрика - А Любить Так Хочется (3:13)
7. Uma2rmaH - В Городе Дождь (3:25)
8. Глюк'oza - Деньги (3:09)
9. Quest Pistols - Он Рядом (3:08)
10. DJ Smash Feat. Shahzoda - Между Небом И Землей (2:42)
11. Serebro - Сладко (3:32)
12. Дмитрий Колдун - Звезда (3:21)
13. 23:45 & 5ivesta - Я Буду… (3:02)
14. Город 312 Feat. Баста - Обернись (3:15)
15. Дима Билан - Больно (3:38)
16. Вика Дайнеко - Клякса (2:49)
17. Григорий Лепс - Уходи Красиво (3:34)
18. Зара - Не Долюбила (3:04)
19. Константин Бубнов - Захотелось Водки Вдруг (4:07)
20. Святослав Бах - Бархатный Птенец Из Миража (3:24)
21. Винтаж - Девочки-Лунатики (3:26)
22. Сергей Трофимов - Город В Пробках (3:15)
23. Две Новых - Она - Это Я (2:57)
24. Смысловые Галлюцинации - Без Стюартдесс (4:06)

Код:

Exact Audio Copy V0.99 prebeta 5 from 4. May 2009

Отчёт EAC об извлечении, выполненном 3. октября 2010, 1:37

Various Artists / Союз 45

Дисковод: TSSTcorpCDDVDW SH-S223B   Adapter: 2  ID: 0

Режим чтения                 : Достоверность
Использование точного потока : Да
Отключение кэша аудио        : Да
Использование указателей C2  : Нет

Коррекция смещения при чтении                     : 6
Способность читать области Lead-in и Lead-out     : Нет
Заполнение пропущенных сэмплов тишиной            : Да
Удаление блоков с тишиной в начале и конце        : Нет
При вычислениях CRC использовались нулевые сэмплы : Да
Интерфейс                                         : Встроенный Win32-интерфейс для Win NT/2000

Выходной формат : Внутренние WAV-операции
Формат сэмплов  : 44.100 Гц; 16 бит; стерео

TOC извлечённого CD

     Трек |   Старт  | Длительность | Начальный сектор | Конечный сектор
    ---------------------------------------------------------------------
       1  |  0:00.00 |    3:25.67   |           0      |      15441     
       2  |  3:25.67 |    2:42.64   |       15442      |      27655     
       3  |  6:08.56 |    3:37.50   |       27656      |      43980     
       4  |  9:46.31 |    4:03.53   |       43981      |      62258     
       5  | 13:50.09 |    2:54.30   |       62259      |      75338     
       6  | 16:44.39 |    3:13.57   |       75339      |      89870     
       7  | 19:58.21 |    3:25.27   |       89871      |     105272     
       8  | 23:23.48 |    3:09.33   |      105273      |     119480     
       9  | 26:33.06 |    3:08.13   |      119481      |     133593     
      10  | 29:41.19 |    2:42.55   |      133594      |     145798     
      11  | 32:23.74 |    3:32.02   |      145799      |     161700     
      12  | 35:56.01 |    3:21.43   |      161701      |     176818     
      13  | 39:17.44 |    3:02.01   |      176819      |     190469     
      14  | 42:19.45 |    3:15.14   |      190470      |     205108     
      15  | 45:34.59 |    3:38.32   |      205109      |     221490     
      16  | 49:13.16 |    2:49.57   |      221491      |     234222     
      17  | 52:02.73 |    3:34.15   |      234223      |     250287     
      18  | 55:37.13 |    3:04.38   |      250288      |     264125     
      19  | 58:41.51 |    4:07.34   |      264126      |     282684     
      20  | 62:49.10 |    3:24.19   |      282685      |     298003     
      21  | 66:13.29 |    3:26.48   |      298004      |     313501     
      22  | 69:40.02 |    3:15.48   |      313502      |     328174     
      23  | 72:55.50 |    2:57.50   |      328175      |     341499     
      24  | 75:53.25 |    4:06.21   |      341500      |     359970     

Характеристики диапазона извлечения и сообщения об ошибках

Выбранный диапазон

     Имя файла M:\Русская Поп-музыка\Сборники\Союз 45\Союз 45.wav

     Пиковый уровень 98.9 %
     Качество диапазона 100.0 %
     CRC теста EB016AE7
     CRC копии EB016AE7
     Копирование... OK

Ошибок не произошло

 
AccurateRip: сводка
 
Трек  1  точность не определена (достоверность 1)  [67EDDAD4], AccurateRip вернул [A1D592AE]
Трек  2  точность не определена (достоверность 1)  [58565211], AccurateRip вернул [1C5E240E]
Трек  3  точность не определена (достоверность 1)  [DC36A7B6], AccurateRip вернул [E8EA084C]
Трек  4  точность не определена (достоверность 1)  [0FA5ED96], AccurateRip вернул [3E2DD365]
Трек  5  точность не определена (достоверность 1)  [230A9AA7], AccurateRip вернул [7658C997]
Трек  6  точность не определена (достоверность 1)  [A5AEC6F9], AccurateRip вернул [35F185E1]
Трек  7  точность не определена (достоверность 1)  [CC0851F0], AccurateRip вернул [DCE4EAF1]
Трек  8  нет в базе данных
Трек  9  точность не определена (достоверность 1)  [20CC42C7], AccurateRip вернул [9829224B]
Трек 10  точность не определена (достоверность 1)  [476D5892], AccurateRip вернул [C5A0E2B7]
Трек 11  точность не определена (достоверность 1)  [F8C26494], AccurateRip вернул [501F0FCC]
Трек 12  точность не определена (достоверность 1)  [A2E2739F], AccurateRip вернул [5E45CA32]
Трек 13  точность не определена (достоверность 1)  [F7013415], AccurateRip вернул [F47F84D0]
Трек 14  точность не определена (достоверность 1)  [85F0DC38], AccurateRip вернул [0ABB3F6A]
Трек 15  точность не определена (достоверность 1)  [E79BE353], AccurateRip вернул [351EBE5D]
Трек 16  точность не определена (достоверность 1)  [DE28D9E8], AccurateRip вернул [D1EDCBF7]
Трек 17  точность не определена (достоверность 1)  [47F77240], AccurateRip вернул [7174C114]
Трек 18  точность не определена (достоверность 1)  [784E01AB], AccurateRip вернул [AD8AF2A1]
Трек 19  точность не определена (достоверность 1)  [D7C77BB9], AccurateRip вернул [118743BC]
Трек 20  точность не определена (достоверность 1)  [0170A16D], AccurateRip вернул [7046ACD9]
Трек 21  точность не определена (достоверность 1)  [F7B9EE0F], AccurateRip вернул [11B78FDC]
Трек 22  точность не определена (достоверность 1)  [EB5CBE80], AccurateRip вернул [223AFFAB]
Трек 23  точность не определена (достоверность 1)  [010B1741], AccurateRip вернул [0174DFF8]
Трек 24  нет в базе данных
 
22 трек(и) не удалось проверить на точность
 2 трек(и) не содержатся в базе AccurateRip

Ни один трек не прошёл проверки на точность
В вашей базе может быть иной вариант штамповки диска

Конец отчёта
pic
pic
pic
Релиз: pic


Сборник купил из-за 2-х треков:
  • Николай Басков И Оксана Федорова - Права Любовь
  • Святослав Бах - Бархатный Птенец Из Миража (тот самый Бах)


А так оценка 3+
Вот смотрю на сборник бездарей и нет желание качать ради трех треков. Куда катится искуство (((

Страница 1 из 1

new_topic  reply_topic

Текущее время: 24-Ноя 13:24
Часовой пояс: GMT + 4

m Сделано с любовью PR-CY.ru Каталог webplus.info