Вход на сайт

Имя:
Пароль:

· Забыли пароль?
logo
Портал Форум
Регистрация Вход


new_topic  reply_topic

  (Pop) СОЮЗ Пионерский №1. 2010, APE (image + .cue)

pic
Год выпуска: 2010
Страна: Россия
Производитель: Литва
Жанр: Pop
Номер #: RU-1410 (PRIORO Įrašų Grupė) официальное балтийское издание
Продолжительность: 1:06:58

Тип издания: сборник
Аудио кодек: APE
Тип рипа: (image + .cue)
Битрейт аудио: lossless

1. Рома Н - Начинаем Танцевать (3:43)
2. Татьяна Буланова - Ясный Мой Свет (3:27)
3. Леприконсы - Девчонки Полюбили Не Меня (4:05)
4. Нэнси - Дым Сигарет С Ментолом (6:12)
5. Комиссар - Королева Снежная (4:32)
6. Светлана Разина - Света (3:22)
7. Жуки - Танкист (2:50)
8. Игорек - Подождем (3:25)
9. Света - Хватит, Довольно (3:40)
10. Сладкий Сон - На Белом Покрывале Января (3:40)
11. Александр Айвазов - Бабочка-Луна (3:33)
12. 140 Ударов В Минуту - Тополя (3:29)
13. Virus - Ты Меня Не Ищи (4:52)
14. Хамелеон - 12-85-00 (3:38)
15. Демо - Дождик (3:49)
16. Унесенные Ветром - Какао (3:54)
17. Кай Метов - Position 2 [Orchestra Version] (4:40)


Время стремительно летит, и оглядываясь назад, мы осознаем, что беззаботное и счастливое детство осталось в прошлом. Но наша память снова и снова возвращает нас в то золотое время, когда мы были беспечны и молоды, а жизнь казалась легкой и радостной... Приглашаем и вас вспомнить это беззаботное время.

Данный сборник НЕ является пиратской сборкой, коих сейчас под лейблом «СОЮЗ» штампуется крайне много! Это официальный релиз от студии «СОЮЗ»! И крайне приятно, что они решились-таки выпустить сборник с песнями 90-х, а не современный ширпотреб как они это делают. Конечно, сборка такого альбома могла бы быть и получше, однако и эта вполне себе ничего!

Код:

Exact Audio Copy V0.99 prebeta 5 from 4. May 2009

Отчёт EAC об извлечении, выполненном 20. декабря 2010, 14:06

Various / СОЮЗ Пионерский №1

Дисковод: TSSTcorpCDDVDW SH-S223B   Adapter: 2  ID: 0

Режим чтения                 : Достоверность
Использование точного потока : Да
Отключение кэша аудио        : Да
Использование указателей C2  : Нет

Коррекция смещения при чтении                     : 6
Способность читать области Lead-in и Lead-out     : Нет
Заполнение пропущенных сэмплов тишиной            : Да
Удаление блоков с тишиной в начале и конце        : Нет
При вычислениях CRC использовались нулевые сэмплы : Да
Интерфейс                                         : Встроенный Win32-интерфейс для Win NT/2000

Выходной формат : Внутренние WAV-операции
Формат сэмплов  : 44.100 Гц; 16 бит; стерео

TOC извлечённого CD

     Трек |   Старт  | Длительность | Начальный сектор | Конечный сектор
    ---------------------------------------------------------------------
       1  |  0:00.00 |    3:43.73   |           0      |      16797     
       2  |  3:43.73 |    3:27.04   |       16798      |      32326     
       3  |  7:11.02 |    4:05.03   |       32327      |      50704     
       4  | 11:16.05 |    6:12.35   |       50705      |      78639     
       5  | 17:28.40 |    4:32.62   |       78640      |      99101     
       6  | 22:01.27 |    3:22.17   |       99102      |     114268     
       7  | 25:23.44 |    2:50.38   |      114269      |     127056     
       8  | 28:14.07 |    3:25.56   |      127057      |     142487     
       9  | 31:39.63 |    3:40.07   |      142488      |     158994     
      10  | 35:19.70 |    3:40.55   |      158995      |     175549     
      11  | 39:00.50 |    3:33.07   |      175550      |     191531     
      12  | 42:33.57 |    3:29.64   |      191532      |     207270     
      13  | 46:03.46 |    4:52.27   |      207271      |     229197     
      14  | 50:55.73 |    3:38.50   |      229198      |     245597     
      15  | 54:34.48 |    3:49.10   |      245598      |     262782     
      16  | 58:23.58 |    3:54.56   |      262783      |     280388     
      17  | 62:18.39 |    4:40.26   |      280389      |     301414     

Характеристики диапазона извлечения и сообщения об ошибках

Выбранный диапазон

     Имя файла M:\Сборники\СОЮЗ Пионерский №1\СОЮЗ Пионерский №1.wav

     Пиковый уровень 100.0 %
     Качество диапазона 100.0 %
     CRC теста CA782240
     CRC копии CA782240
     Копирование... OK

Ошибок не произошло

 
AccurateRip: сводка
 
Трек  1  нет в базе данных
Трек  2  нет в базе данных
Трек  3  нет в базе данных
Трек  4  нет в базе данных
Трек  5  нет в базе данных
Трек  6  нет в базе данных
Трек  7  нет в базе данных
Трек  8  нет в базе данных
Трек  9  нет в базе данных
Трек 10  нет в базе данных
Трек 11  нет в базе данных
Трек 12  нет в базе данных
Трек 13  нет в базе данных
Трек 14  нет в базе данных
Трек 15  нет в базе данных
Трек 16  нет в базе данных
Трек 17  нет в базе данных
 
Ни одного трека нет в базе AccurateRip

Конец отчёта
pic
pic pic pic
Релиз: pic


dimassamid смысла конечно не понял в название Пионерский, может быть ассоциация с юностью А подборка супер, такая ностальгия по тем временам. Спасибо за сборник, жду продолжения

Страница 1 из 1

new_topic  reply_topic

Текущее время: 24-Ноя 13:26
Часовой пояс: GMT + 4

m Сделано с любовью PR-CY.ru Каталог webplus.info