Вход на сайт

Имя:
Пароль:

· Забыли пароль?
logo
Портал Форум
Регистрация Вход


new_topic  reply_topic

  (Eurodance) Masterboy – The Masterboy Family 1991, FLAC (image + .cue)

pic
Год выпуска: 1991
Страна: Германия
Жанр: Eurodance
Номер #: 511 081-2
Продолжительность: ~ 52 минуты

Тип издания: альбом
Аудио кодек: FLAC
Тип рипа: (image + .cue)
Битрейт аудио: lossless


Трэклист:

01. Dance To The Beat (Remix)
02. Indian Grave
03. Pump It Up
04. Masterboy Theme
05. Summer-Night
06. I Need Your Love
07. Shake It Up And Dance (Remix)
08. Keep On Dancing
09. Cause We Do It Again
10. Twilight Zone
11. Dance To The Beat (Rap Version)

Код:

Exact Audio Copy V0.99 prebeta 5 from 4. May 2009

Отчёт EAC об извлечении, выполненном 22. апреля 2011, 21:49

Masterboy / The Masterboy Family

Дисковод: PLEXTOR DVDR   PX-800A   Adapter: 0  ID: 0

Режим чтения                 : Достоверность
Использование точного потока : Да
Отключение кэша аудио        : Да
Использование указателей C2  : Нет

Коррекция смещения при чтении                     : 48
Способность читать области Lead-in и Lead-out     : Нет
Заполнение пропущенных сэмплов тишиной            : Да
Удаление блоков с тишиной в начале и конце        : Нет
При вычислениях CRC использовались нулевые сэмплы : Да
Интерфейс                                         : Встроенный Win32-интерфейс для Win NT/2000

Выходной формат : Внутренние WAV-операции
Формат сэмплов  : 44.100 Гц; 16 бит; стерео

TOC извлечённого CD

     Трек |   Старт  | Длительность | Начальный сектор | Конечный сектор
    ---------------------------------------------------------------------
       1  |  0:00.33 |    5:01.67   |          33      |      22674     
       2  |  5:02.25 |    4:01.33   |       22675      |      40782     
       3  |  9:03.58 |    4:26.07   |       40783      |      60739     
       4  | 13:29.65 |    4:40.43   |       60740      |      81782     
       5  | 18:10.33 |    3:31.70   |       81783      |      97677     
       6  | 21:42.28 |    4:13.20   |       97678      |     116672     
       7  | 25:55.48 |    6:16.45   |      116673      |     144917     
       8  | 32:12.18 |    4:28.05   |      144918      |     165022     
       9  | 36:40.23 |    5:24.45   |      165023      |     189367     
      10  | 42:04.68 |    4:25.55   |      189368      |     209297     
      11  | 46:30.48 |    4:48.57   |      209298      |     230954     

Характеристики диапазона извлечения и сообщения об ошибках

Выбранный диапазон

     Имя файла C:\Temp\Образы\Masterboy - The Masterboy Family.wav

     Пиковый уровень 100.0 %
     Качество диапазона 100.0 %
     CRC теста AEA7D832
     CRC копии AEA7D832
     Копирование... OK

Ошибок не произошло

 
AccurateRip: сводка
 
Трек  1  точное извлечение (доверие 6)  [5B4B1C05]
Трек  2  точное извлечение (доверие 6)  [FB29F968]
Трек  3  точное извлечение (доверие 6)  [713F8AC0]
Трек  4  точное извлечение (доверие 6)  [93453620]
Трек  5  точное извлечение (доверие 6)  [4F528C0D]
Трек  6  точное извлечение (доверие 6)  [9F734C4A]
Трек  7  точное извлечение (доверие 5)  [9946820A]
Трек  8  точное извлечение (доверие 5)  [E40D4683]
Трек  9  точное извлечение (доверие 5)  [D99B3DCE]
Трек 10  точное извлечение (доверие 5)  [9F3264A8]
Трек 11  точное извлечение (доверие 5)  [DBC59D6D]
 
Все треки извлечены точно

Конец отчёта

Страница 1 из 1

new_topic  reply_topic

Текущее время: 28-Ноя 00:50
Часовой пояс: GMT + 4

m Сделано с любовью PR-CY.ru Каталог webplus.info