Вход на сайт

Имя:
Пароль:

· Забыли пароль?
logo
Портал Форум
Регистрация Вход


new_topic  reply_topic

  (Euro House) Masterboy Feat. Mendy Lee & M.C. A.T.B. – I Need Your Love 1991, FLAC (image + .cue)

pic
Год выпуска: 1991
Страна: Германия
Жанр: Euro House
Номер #: 867 513-2
Продолжительность: ~ 22 минуты

Тип издания: сингл
Аудио кодек: FLAC
Тип рипа: (image + .cue)
Битрейт аудио: lossless


Трэклист:

01. I Need Your Love (Single-Version)
02. I Need Your Love (Vocal-sun-Mix)
03. Indian Grave (Single-version)
04. Indian Grave (Temple-mix)

Код:

Exact Audio Copy V0.99 prebeta 5 from 4. May 2009

Отчёт EAC об извлечении, выполненном 22. апреля 2011, 12:36

Masterboy feat. Mendy Lee & M.C. A.T.B. / I Need Your Love

Дисковод: PLEXTOR DVDR   PX-800A   Adapter: 0  ID: 0

Режим чтения                 : Достоверность
Использование точного потока : Да
Отключение кэша аудио        : Да
Использование указателей C2  : Нет

Коррекция смещения при чтении                     : 48
Способность читать области Lead-in и Lead-out     : Нет
Заполнение пропущенных сэмплов тишиной            : Да
Удаление блоков с тишиной в начале и конце        : Нет
При вычислениях CRC использовались нулевые сэмплы : Да
Интерфейс                                         : Встроенный Win32-интерфейс для Win NT/2000

Выходной формат : Внутренние WAV-операции
Формат сэмплов  : 44.100 Гц; 16 бит; стерео

TOC извлечённого CD

     Трек |   Старт  | Длительность | Начальный сектор | Конечный сектор
    ---------------------------------------------------------------------
       1  |  0:00.33 |    4:17.25   |          33      |      19332     
       2  |  4:17.58 |    6:48.00   |       19333      |      49932     
       3  | 11:05.58 |    4:02.50   |       49933      |      68132     
       4  | 15:08.33 |    6:19.00   |       68133      |      96557     

Характеристики диапазона извлечения и сообщения об ошибках

Выбранный диапазон

     Имя файла C:\Temp\Образы\Masterboy feat. Mendy Lee & M.C. A.T.B. - I Need Your Love.wav

     Пиковый уровень 100.0 %
     Качество диапазона 99.9 %
     CRC теста E5D50C2F
     CRC копии E5D50C2F
     Копирование... OK

Ошибок не произошло

 
AccurateRip: сводка
 
Трек  1  нет в базе данных
Трек  2  нет в базе данных
Трек  3  нет в базе данных
Трек  4  нет в базе данных
 
Ни одного трека нет в базе AccurateRip

Конец отчёта

Страница 1 из 1

new_topic  reply_topic

Текущее время: 28-Ноя 00:31
Часовой пояс: GMT + 4

m Сделано с любовью PR-CY.ru Каталог webplus.info