Вход на сайт

Имя:
Пароль:

· Забыли пароль?
logo
Портал Форум
Регистрация Вход


new_topic  reply_topic

  (Eurodance ) Masterboy – Feel The Heat Of The Night (Remixes) 1994, FLAC (image + .cue)

pic
Год выпуска: 1994
Страна: Германия
Жанр: Eurodance
Номер #: 853 473-2
Продолжительность: ~ 18 минут

Тип издания: сингл
Аудио кодек: FLAC
Тип рипа: (image + .cue)
Битрейт аудио: lossless

Трэклист:

01. Feel The Heat Of The Night (Shark Mix)
02. Feel The Heat Of The Night (The Second Mix)
03. Feel The Heat Of The Night (Bass Mix)

Код:

Exact Audio Copy V0.99 prebeta 5 from 4. May 2009

Отчёт EAC об извлечении, выполненном 22. апреля 2011, 15:42

Masterboy / Feel The Heat Of The Night (Remix)

Дисковод: PLEXTOR DVDR   PX-800A   Adapter: 0  ID: 0

Режим чтения                 : Достоверность
Использование точного потока : Да
Отключение кэша аудио        : Да
Использование указателей C2  : Нет

Коррекция смещения при чтении                     : 48
Способность читать области Lead-in и Lead-out     : Нет
Заполнение пропущенных сэмплов тишиной            : Да
Удаление блоков с тишиной в начале и конце        : Нет
При вычислениях CRC использовались нулевые сэмплы : Да
Интерфейс                                         : Встроенный Win32-интерфейс для Win NT/2000

Выходной формат : Внутренние WAV-операции
Формат сэмплов  : 44.100 Гц; 16 бит; стерео

TOC извлечённого CD

     Трек |   Старт  | Длительность | Начальный сектор | Конечный сектор
    ---------------------------------------------------------------------
       1  |  0:00.33 |    5:53.00   |          33      |      26507     
       2  |  5:53.33 |    5:56.00   |       26508      |      53207     
       3  | 11:49.33 |    5:26.00   |       53208      |      77657     

Характеристики диапазона извлечения и сообщения об ошибках

Выбранный диапазон

     Имя файла C:\Temp\Образы\Masterboy - Feel The Heat Of The Night (Remix).wav

     Пиковый уровень 98.1 %
     Качество диапазона 100.0 %
     CRC теста 92EF2288
     CRC копии 92EF2288
     Копирование... OK

Ошибок не произошло

 
AccurateRip: сводка
 
Трек  1  точное извлечение (доверие 3)  [4F306C38]
Трек  2  точное извлечение (доверие 2)  [A44537A4]
Трек  3  точное извлечение (доверие 2)  [27C5480F]
 
Все треки извлечены точно

Конец отчёта

Страница 1 из 1

new_topic  reply_topic

Текущее время: 28-Ноя 00:08
Часовой пояс: GMT + 4

m Сделано с любовью PR-CY.ru Каталог webplus.info