Вход на сайт

Имя:
Пароль:

· Забыли пароль?
logo
Портал Форум
Регистрация Вход


new_topic  reply_topic

  (Eurodance) Masterboy - Anybody (Movin' On) 1995, FLAC (image + .cue)

pic
Год выпуска: 1995
Страна: Германия
Жанр: Eurodance
Продолжительность: 32 минуты


Тип контента: сингл
Аудио кодек: FLAC
Тип рипа: (image + .cue)
Битрейт аудио: lossless


Треклист: 
01. Anybody (Movin' On) (Friends Radio Edit) (3:52)
02. Anybody (Movin' On) (Midnight Radio Edit) (3:25)
03. Anybody (Movin' On) (Friends Mix) (6:35)
04. Anybody (Movin' On) (Midnight Mix) (5:30)
05. Anybody (Movin' On) (Midnight Mix - Rapless Version) (5:30)
06. Anybody (Movin' On) (Instrumental) (6:35)

Код:

Exact Audio Copy V0.99 prebeta 5 from 4. May 2009

Отчёт EAC об извлечении, выполненном 22. апреля 2011, 16:55

Masterboy / Anybody (Movin' On)

Дисковод: PLEXTOR DVDR   PX-800A   Adapter: 0  ID: 0

Режим чтения                 : Достоверность
Использование точного потока : Да
Отключение кэша аудио        : Да
Использование указателей C2  : Нет

Коррекция смещения при чтении                     : 48
Способность читать области Lead-in и Lead-out     : Нет
Заполнение пропущенных сэмплов тишиной            : Да
Удаление блоков с тишиной в начале и конце        : Нет
При вычислениях CRC использовались нулевые сэмплы : Да
Интерфейс                                         : Встроенный Win32-интерфейс для Win NT/2000

Выходной формат : Внутренние WAV-операции
Формат сэмплов  : 44.100 Гц; 16 бит; стерео

TOC извлечённого CD

     Трек |   Старт  | Длительность | Начальный сектор | Конечный сектор
    ---------------------------------------------------------------------
       1  |  0:00.32 |    3:54.35   |          32      |      17616     
       2  |  3:54.67 |    3:26.40   |       17617      |      33106     
       3  |  7:21.32 |    6:34.70   |       33107      |      62726     
       4  | 13:56.27 |    5:27.25   |       62727      |      87276     
       5  | 19:23.52 |    5:27.25   |       87277      |     111826     
       6  | 24:51.02 |    6:34.30   |      111827      |     141406     

Характеристики диапазона извлечения и сообщения об ошибках

Выбранный диапазон

     Имя файла C:\Temp\Образы\Masterboy - Anybody (Movin' On).wav

     Пиковый уровень 97.7 %
     Качество диапазона 99.9 %
     CRC теста 5C6E30C0
     CRC копии 5C6E30C0
     Копирование... OK

Ошибок не произошло

 
AccurateRip: сводка
 
Трек  1  точное извлечение (доверие 10)  [9E478458]
Трек  2  точное извлечение (доверие 9)  [E316EDC8]
Трек  3  точное извлечение (доверие 10)  [B93DCEEE]
Трек  4  точное извлечение (доверие 9)  [468695A8]
Трек  5  точное извлечение (доверие 9)  [3227585C]
Трек  6  точное извлечение (доверие 10)  [59A03389]
 
Все треки извлечены точно

Конец отчёта
Переснял образ

Страница 1 из 1

new_topic  reply_topic

Текущее время: 04-Дек 20:49
Часовой пояс: GMT + 4

m Сделано с любовью PR-CY.ru Каталог webplus.info