Вход на сайт

Имя:
Пароль:

· Забыли пароль?
logo
Портал Форум
Регистрация Вход


new_topic  reply_topic

  (Eurodance) Masterboy – Land Of Dreaming (Remixes) 1996, FLAC (image + .cue)

pic
Год выпуска: 1996
Страна: Германия
Жанр: Eurodance
Номер #: 576 111-2
Продолжительность: ~ 25 минут

Тип издания: сингл
Аудио кодек: FLAC
Тип рипа: (image + .cue)
Битрейт аудио: lossless


Трэклист:

01. Land Of Dreaming (Radio Accoustic Edit)
02. Land Of Dreaming (Radio US Mix)
03. Land Of Dreaming (Unit House Mix)
04. Land Of Dreaming (US Mix)
05. Land Of Dreaming (Unit House Rapless Mix)
06. Land Of Dreaming (Cappella Club Mix)
07. Land Of Dreaming (Cappella T.S.O.B. Mix (The Sound Of Brescia))

Код:

Exact Audio Copy V0.99 prebeta 5 from 4. May 2009

Отчёт EAC об извлечении, выполненном 22. апреля 2011, 19:44

Masterboy / Land of Dreaming (Remixes)

Дисковод: PLEXTOR DVDR   PX-800A   Adapter: 0  ID: 0

Режим чтения                 : Достоверность
Использование точного потока : Да
Отключение кэша аудио        : Да
Использование указателей C2  : Нет

Коррекция смещения при чтении                     : 48
Способность читать области Lead-in и Lead-out     : Нет
Заполнение пропущенных сэмплов тишиной            : Да
Удаление блоков с тишиной в начале и конце        : Нет
При вычислениях CRC использовались нулевые сэмплы : Да
Интерфейс                                         : Встроенный Win32-интерфейс для Win NT/2000

Выходной формат : Внутренние WAV-операции
Формат сэмплов  : 44.100 Гц; 16 бит; стерео

TOC извлечённого CD

     Трек |   Старт  | Длительность | Начальный сектор | Конечный сектор
    ---------------------------------------------------------------------
       1  |  0:00.33 |    3:15.50   |          33      |      14707     
       2  |  3:16.08 |    3:50.40   |       14708      |      31997     
       3  |  7:06.48 |    5:01.10   |       31998      |      54582     
       4  | 12:07.58 |    5:00.00   |       54583      |      77082     
       5  | 17:07.58 |    5:14.50   |       77083      |     100682     
       6  | 22:22.33 |    6:10.00   |      100683      |     128432     
       7  | 28:32.33 |    5:43.00   |      128433      |     154157     

Характеристики диапазона извлечения и сообщения об ошибках

Выбранный диапазон

     Имя файла C:\Temp\Образы\Masterboy - Land of Dreaming (Remixes).wav

     Пиковый уровень 98.8 %
     Качество диапазона 100.0 %
     CRC теста E10DE7F0
     CRC копии E10DE7F0
     Копирование... OK

Ошибок не произошло

 
AccurateRip: сводка
 
Трек  1  точное извлечение (доверие 3)  [0F314001]
Трек  2  точное извлечение (доверие 3)  [59617D94]
Трек  3  точное извлечение (доверие 3)  [4BEA0B90]
Трек  4  точное извлечение (доверие 3)  [FBF41F26]
Трек  5  точное извлечение (доверие 3)  [17EC5AB6]
Трек  6  точное извлечение (доверие 3)  [47893FE8]
Трек  7  точность не определена (достоверность 2)  [EEB93310], AccurateRip вернул [9A520AD3]
 
 6 трек(и) скопированы точно
 1 трек(и) не удалось проверить на точность

Некоторые треки не прошли проверку на точность

Конец отчёта

Страница 1 из 1

new_topic  reply_topic

Текущее время: 28-Ноя 00:18
Часовой пояс: GMT + 4

m Сделано с любовью PR-CY.ru Каталог webplus.info