Вход на сайт

Имя:
Пароль:

· Забыли пароль?
logo
Портал Форум
Регистрация Вход


new_topic  reply_topic

  (Eurodance) Masterboy – Just For You 1997, FLAC (image + .cue)

pic
Год выпуска: 1997
Страна: Германия
Жанр: Eurodance
Номер #: 573 293-2
Продолжительность: ~ 13 минут

Тип издания: сингл
Аудио кодек: FLAC
Тип рипа: (image + .cue)
Битрейт аудио: lossless


Трэклист:

01. Just For You (Gospel Air Mix)
02. Just For You (Ballad Mix)
03. Just For You (DJ Dolphin Mix)

Код:

Exact Audio Copy V0.99 prebeta 5 from 4. May 2009

Отчёт EAC об извлечении, выполненном 22. апреля 2011, 18:58

Masterboy / Just For You

Дисковод: PLEXTOR DVDR   PX-800A   Adapter: 0  ID: 0

Режим чтения                 : Достоверность
Использование точного потока : Да
Отключение кэша аудио        : Да
Использование указателей C2  : Нет

Коррекция смещения при чтении                     : 48
Способность читать области Lead-in и Lead-out     : Нет
Заполнение пропущенных сэмплов тишиной            : Да
Удаление блоков с тишиной в начале и конце        : Нет
При вычислениях CRC использовались нулевые сэмплы : Да
Интерфейс                                         : Встроенный Win32-интерфейс для Win NT/2000

Выходной формат : Внутренние WAV-операции
Формат сэмплов  : 44.100 Гц; 16 бит; стерео

TOC извлечённого CD

     Трек |   Старт  | Длительность | Начальный сектор | Конечный сектор
    ---------------------------------------------------------------------
       1  |  0:00.00 |    3:44.70   |           0      |      16869     
       2  |  3:44.70 |    3:21.45   |       16870      |      31989     
       3  |  7:06.40 |    5:50.55   |       31990      |      58294     

Характеристики диапазона извлечения и сообщения об ошибках

Выбранный диапазон

     Имя файла C:\Temp\Образы\Masterboy - Just For You.wav

     Пиковый уровень 98.2 %
     Качество диапазона 100.0 %
     CRC теста 16B9ABC3
     CRC копии 16B9ABC3
     Копирование... OK

Ошибок не произошло

 
AccurateRip: сводка
 
Трек  1  точное извлечение (доверие 2)  [74F89594]
Трек  2  точное извлечение (доверие 2)  [31A087FE]
Трек  3  точное извлечение (доверие 2)  [0F842C90]
 
Все треки извлечены точно

Конец отчёта

Страница 1 из 1

new_topic  reply_topic

Текущее время: 27-Ноя 23:58
Часовой пояс: GMT + 4

m Сделано с любовью PR-CY.ru Каталог webplus.info