Вход на сайт

Имя:
Пароль:

· Забыли пароль?
logo
Портал Форум
Регистрация Вход


new_topic  reply_topic

  (Euro House) Masterboy – I Need A Lover Tonight 2002, FLAC (image + .cue)

pic
Год выпуска: 2002
Страна: Германия
Жанр: Euro House
Номер #: DAD 673188 2
Продолжительность: ~ 27 минут

Тип издания: сингл
Аудио кодек: FLAC
Тип рипа: (image + .cue)
Битрейт аудио: lossless

Трэклист:

01. I Need A Lover Tonight (Video Edit)
02. I Need A Lover Tonight (Club Edit)
03. I Need A Lover Tonight (Pulsedriver Remix)
04. I Need A Lover Tonight (DJs @ Work Remix)
05. I Need A Lover Tonight (Klubbingman Vs. DJ Shah Remix)
06. I Need A Lover Tonight (Original Club Mix)
07. I Need A Lover Tonight

Код:

Exact Audio Copy V0.99 prebeta 5 from 4. May 2009

Отчёт EAC об извлечении, выполненном 22. апреля 2011, 20:49

Masterboy / I Need A Lover Tonight

Дисковод: PLEXTOR DVDR   PX-800A   Adapter: 0  ID: 0

Режим чтения                 : Достоверность
Использование точного потока : Да
Отключение кэша аудио        : Да
Использование указателей C2  : Нет

Коррекция смещения при чтении                     : 48
Способность читать области Lead-in и Lead-out     : Нет
Заполнение пропущенных сэмплов тишиной            : Да
Удаление блоков с тишиной в начале и конце        : Нет
При вычислениях CRC использовались нулевые сэмплы : Да
Интерфейс                                         : Встроенный Win32-интерфейс для Win NT/2000

Выходной формат : Внутренние WAV-операции
Формат сэмплов  : 44.100 Гц; 16 бит; стерео

TOC извлечённого CD

     Трек |   Старт  | Длительность | Начальный сектор | Конечный сектор
    ---------------------------------------------------------------------
       1  |  0:00.00 |    4:04.10   |           0      |      18309     
       2  |  4:04.10 |    3:55.25   |       18310      |      35959     
       3  |  7:59.35 |    6:20.50   |       35960      |      64509     
       4  | 14:20.10 |    7:04.37   |       64510      |      96346     
       5  | 21:24.47 |    7:57.00   |       96347      |     132121     
       6  | 29:21.47 |    7:22.64   |      132122      |     165335     

Характеристики диапазона извлечения и сообщения об ошибках

Выбранный диапазон

     Имя файла C:\Temp\Образы\Masterboy - I Need A Lover Tonight.wav

     Пиковый уровень 100.0 %
     Качество диапазона 100.0 %
     CRC теста 06266650
     CRC копии 06266650
     Копирование... OK

Ошибок не произошло

 
AccurateRip: сводка
 
Трек  1  точность не определена (достоверность 2)  [CA93B5FB], AccurateRip вернул [7952E509]
Трек  2  точность не определена (достоверность 2)  [800D70F8], AccurateRip вернул [2DCA8616]
Трек  3  точность не определена (достоверность 2)  [4DB74CFA], AccurateRip вернул [F673262C]
Трек  4  точность не определена (достоверность 2)  [967A200A], AccurateRip вернул [FCAD6A04]
Трек  5  точность не определена (достоверность 2)  [D4C10B0F], AccurateRip вернул [100BA5EB]
Трек  6  точность не определена (достоверность 2)  [589F81AF], AccurateRip вернул [7141D82B]
 
Ни один трек не прошёл проверки на точность
В вашей базе может быть иной вариант штамповки диска

Конец отчёта

Страница 1 из 1

new_topic  reply_topic

Текущее время: 28-Ноя 01:32
Часовой пояс: GMT + 4

m Сделано с любовью PR-CY.ru Каталог webplus.info