Вход на сайт

Имя:
Пароль:

· Забыли пароль?
logo
Портал Форум
Регистрация Вход


new_topic  reply_topic

  (Pop) Союз 17, full - 1996, FLAC (image + .cue)

pic
Год выпуска: 1996
Страна: Россия
Жанр: Pop
Номер #: SZCD 0500-96 (Студия "СОЮЗ")
Продолжительность: 0:52:37 + 0:49:44

Тип издания: сборник
Аудио кодек: FLAC
Тип рипа: (image + .cue)
Битрейт аудио: lossless

Треклист:

CD1

  1. Дюна - Фонарики
  2. Маша Распутина - Ах, Одесса
  3. Таня Буланова - Обратный Билет
  4. Месмер - Матумба
  5. Владимир Цветаев - Леди Любовь
  6. Татьяна Овсиенко - Школьная
  7. А-Студио - Нелюбимая
  8. Ирина Салтыкова - Да И Нет
  9. Лариса Черникова - Да Ты Не Смейся
  10. Радио Транс - Красная Шапочка
  11. Алексей Стёпин - Только Ты
  12. Николай Трубач - Женская Любовь
  13. Трофим - Ты Мой Свет


CD2

  1. Александр Айвазов - Я Прошу Тебя, Не Плачь
  2. Аркадий Укупник - Грустный Дождь
  3. Лайма - Жаворонок И Сова
  4. Дмитрий Маликов - Прощай, Моя Блондинка
  5. София Ротару - Нет Мне Места В Твоём Сердце
  6. Кай Метов - Тебя Со Мною Рядом Нет
  7. Валерий Меладзе - Актриса
  8. Нэнси - Чёрный Кадиллак
  9. Алёна Апина - Семечек Стакан
  10. Рок-Острова - Стежки
  11. Евгений Осин - Качка
  12. Вика Цыганова - Кому Это Надо
  13. Вахтанг Кикабидзе - Тишина

Код:

Exact Audio Copy V0.99 prebeta 5 from 4. May 2009

Отчёт EAC об извлечении, выполненном 12. мая 2011, 20:49

Various / Союз-17. CD1

Дисковод: TSSTcorpCDDVDW SH-S223B   Adapter: 2  ID: 0

Режим чтения                 : Достоверность
Использование точного потока : Да
Отключение кэша аудио        : Да
Использование указателей C2  : Нет

Коррекция смещения при чтении                     : 6
Способность читать области Lead-in и Lead-out     : Нет
Заполнение пропущенных сэмплов тишиной            : Да
Удаление блоков с тишиной в начале и конце        : Нет
При вычислениях CRC использовались нулевые сэмплы : Да
Интерфейс                                         : Встроенный Win32-интерфейс для Win NT/2000

Выходной формат : Внутренние WAV-операции
Формат сэмплов  : 44.100 Гц; 16 бит; стерео

TOC извлечённого CD

     Трек |   Старт  | Длительность | Начальный сектор | Конечный сектор
    ---------------------------------------------------------------------
       1  |  0:00.10 |    3:28.55   |          10      |      15664     
       2  |  3:28.65 |    3:38.67   |       15665      |      32081     
       3  |  7:07.57 |    3:41.43   |       32082      |      48699     
       4  | 10:49.25 |    4:31.62   |       48700      |      69086     
       5  | 15:21.12 |    4:21.00   |       69087      |      88661     
       6  | 19:42.12 |    3:38.13   |       88662      |     105024     
       7  | 23:20.25 |    4:13.35   |      105025      |     124034     
       8  | 27:33.60 |    3:58.30   |      124035      |     141914     
       9  | 31:32.15 |    4:35.30   |      141915      |     162569     
      10  | 36:07.45 |    5:31.17   |      162570      |     187411     
      11  | 41:38.62 |    4:00.35   |      187412      |     205446     
      12  | 45:39.22 |    3:55.60   |      205447      |     223131     
      13  | 49:35.07 |    3:02.65   |      223132      |     236846     

Характеристики диапазона извлечения и сообщения об ошибках

Выбранный диапазон

     Имя файла M:\Сборники\Сборники СОЮЗ\Союз-17 (1996) lossless, full\CD1\Союз 17. CD1.wav

     Пиковый уровень 96.0 %
     Качество диапазона 99.9 %
     CRC теста F931EEFF
     CRC копии F931EEFF
     Копирование... OK

Ошибок не произошло

 
AccurateRip: сводка
 
Трек  1  нет в базе данных
Трек  2  нет в базе данных
Трек  3  нет в базе данных
Трек  4  нет в базе данных
Трек  5  нет в базе данных
Трек  6  нет в базе данных
Трек  7  нет в базе данных
Трек  8  нет в базе данных
Трек  9  нет в базе данных
Трек 10  нет в базе данных
Трек 11  нет в базе данных
Трек 12  нет в базе данных
Трек 13  нет в базе данных
 
Ни одного трека нет в базе AccurateRip

Конец отчёта

Код:

Exact Audio Copy V0.99 prebeta 5 from 4. May 2009

Отчёт EAC об извлечении, выполненном 12. мая 2011, 22:29

Various / Союз-17. CD2

Дисковод: TSSTcorpCDDVDW SH-S223B   Adapter: 2  ID: 0

Режим чтения                 : Достоверность
Использование точного потока : Да
Отключение кэша аудио        : Да
Использование указателей C2  : Нет

Коррекция смещения при чтении                     : 6
Способность читать области Lead-in и Lead-out     : Нет
Заполнение пропущенных сэмплов тишиной            : Да
Удаление блоков с тишиной в начале и конце        : Нет
При вычислениях CRC использовались нулевые сэмплы : Да
Интерфейс                                         : Встроенный Win32-интерфейс для Win NT/2000

Выходной формат : Внутренние WAV-операции
Формат сэмплов  : 44.100 Гц; 16 бит; стерео

TOC извлечённого CD

     Трек |   Старт  | Длительность | Начальный сектор | Конечный сектор
    ---------------------------------------------------------------------
       1  |  0:00.10 |    3:47.35   |          10      |      17069     
       2  |  3:47.45 |    3:36.65   |       17070      |      33334     
       3  |  7:24.35 |    4:05.32   |       33335      |      51741     
       4  | 11:29.67 |    3:53.33   |       51742      |      69249     
       5  | 15:23.25 |    4:08.70   |       69250      |      87919     
       6  | 19:32.20 |    4:29.50   |       87920      |     108144     
       7  | 24:01.70 |    4:08.57   |      108145      |     126801     
       8  | 28:10.52 |    5:25.13   |      126802      |     151189     
       9  | 33:35.65 |    3:42.10   |      151190      |     167849     
      10  | 37:18.00 |    3:11.60   |      167850      |     182234     
      11  | 40:29.60 |    3:04.50   |      182235      |     196084     
      12  | 43:34.35 |    3:10.20   |      196085      |     210354     
      13  | 46:44.55 |    2:59.25   |      210355      |     223804     

Характеристики диапазона извлечения и сообщения об ошибках

Выбранный диапазон

     Имя файла M:\Сборники\Сборники СОЮЗ\Союз-17 (1996) lossless, full\CD2\Союз 17. CD2.wav

     Пиковый уровень 89.1 %
     Качество диапазона 100.0 %
     CRC теста 3011E812
     CRC копии 3011E812
     Копирование... OK

Ошибок не произошло

 
AccurateRip: сводка
 
Трек  1  нет в базе данных
Трек  2  нет в базе данных
Трек  3  нет в базе данных
Трек  4  нет в базе данных
Трек  5  нет в базе данных
Трек  6  нет в базе данных
Трек  7  нет в базе данных
Трек  8  нет в базе данных
Трек  9  нет в базе данных
Трек 10  нет в базе данных
Трек 11  нет в базе данных
Трек 12  нет в базе данных
Трек 13  нет в базе данных
 
Ни одного трека нет в базе AccurateRip

Конец отчёта
Релиз: pic


Пик популярности сборников СОЮЗ. Великолепное оформление буклета, прекрасные композиции!
Песни детства!

Страница 1 из 1

new_topic  reply_topic

Текущее время: 24-Ноя 13:12
Часовой пояс: GMT + 4

m Сделано с любовью PR-CY.ru Каталог webplus.info