Вход на сайт

Имя:
Пароль:

· Забыли пароль?
logo
Портал Форум
Регистрация Вход


new_topic  reply_topic

  (Pop) Союз 21, non-stop - 1997, FLAC (image + .cue)

pic
Год выпуска: 1997
Страна: Россия
Жанр: Pop
Номер #: SZCD 0877-97 (Студия "СОЮЗ")
Продолжительность: 1:12:22

Тип издания: сборник
Аудио кодек: FLAC
Тип рипа: (image + .cue)
Битрейт аудио: lossless

Трэклист:
  1. Алена Апина и Мурат Насыров - Лунные ночи
  2. Максим Леонидов - Видение
  3. Татьяна Буланова - Серебристый тополь
  4. Кай Метов - Где-то далеко идут дожди
  5. Алла Пугачева - А я в воду войду
  6. Русский размер и профессор Лебединский - Глазунья
  7. Алла Горбачева - Танго
  8. Демидыч - Гитара
  9. Клементия - Где-то за морями
  10. Валерий Сюткин - Далеко
  11. Анита Цой - Полет
  12. Ногу свело - Лилипутская любовь
  13. Ляпис Трубецкой - Ты кинула
  14. Дюна - Воздушный змей
  15. Белый орел - Потому, что нельзя быть на свете красивой такой
  16. Валерий Меладзе - Самба белого мотылька
  17. Леонид Агутин и Анжелика Варум - Королева
  18. Татьяна Буланова - Мой ненаглядный
  19. Балаган Лимитед - Багамы, мама
  20. Лариса Черникова - Влюбленный самолет
  21. Рок-острова - Не любить не возможно
  22. Филипп Киркоров - Единственная
  23. Марина Хлебникова - Чашка кофею
  24. Александр Шевченко - Рыцарь
  25. Shura - Отшумели летные дожди
  26. Алика Смехова - Не перебивай
  27. Мурат Насыров - Туда-сюда
  28. Алена Апина - Тук-тук
  29. Несчастный случай - Что ты имела
  30. Чиж и Ко. - Тучи над городом встали

Код:

Exact Audio Copy V0.99 prebeta 5 from 4. May 2009

Отчёт EAC об извлечении, выполненном 20. мая 2011, 17:38

Various / Союз-21

Дисковод: TSSTcorpCDDVDW SH-S223B   Adapter: 2  ID: 0

Режим чтения                 : Достоверность
Использование точного потока : Да
Отключение кэша аудио        : Да
Использование указателей C2  : Нет

Коррекция смещения при чтении                     : 6
Способность читать области Lead-in и Lead-out     : Нет
Заполнение пропущенных сэмплов тишиной            : Да
Удаление блоков с тишиной в начале и конце        : Нет
При вычислениях CRC использовались нулевые сэмплы : Да
Интерфейс                                         : Встроенный Win32-интерфейс для Win NT/2000

Выходной формат : Внутренние WAV-операции
Формат сэмплов  : 44.100 Гц; 16 бит; стерео

TOC извлечённого CD

     Трек |   Старт  | Длительность | Начальный сектор | Конечный сектор
    ---------------------------------------------------------------------
       1  |  0:00.10 |    2:48.57   |          10      |      12666     
       2  |  2:48.67 |    2:05.73   |       12667      |      22114     
       3  |  4:54.65 |    2:01.30   |       22115      |      31219     
       4  |  6:56.20 |    2:35.35   |       31220      |      42879     
       5  |  9:31.55 |    2:22.52   |       42880      |      53581     
       6  | 11:54.32 |    2:36.55   |       53582      |      65336     
       7  | 14:31.12 |    2:20.35   |       65337      |      75871     
       8  | 16:51.47 |    2:27.53   |       75872      |      86949     
       9  | 19:19.25 |    2:37.45   |       86950      |      98769     
      10  | 21:56.70 |    2:14.65   |       98770      |     108884     
      11  | 24:11.60 |    2:24.25   |      108885      |     119709     
      12  | 26:36.10 |    2:34.10   |      119710      |     131269     
      13  | 29:10.20 |    2:06.57   |      131270      |     140776     
      14  | 31:17.02 |    2:27.65   |      140777      |     151866     
      15  | 33:44.67 |    2:27.43   |      151867      |     162934     
      16  | 36:12.35 |    2:42.25   |      162935      |     175109     
      17  | 38:54.60 |    2:18.30   |      175110      |     185489     
      18  | 41:13.15 |    2:37.05   |      185490      |     197269     
      19  | 43:50.20 |    1:57.42   |      197270      |     206086     
      20  | 45:47.62 |    2:10.45   |      206087      |     215881     
      21  | 47:58.32 |    2:09.63   |      215882      |     225619     
      22  | 50:08.20 |    2:37.50   |      225620      |     237444     
      23  | 52:45.70 |    2:15.70   |      237445      |     247639     
      24  | 55:01.65 |    2:24.32   |      247640      |     258471     
      25  | 57:26.22 |    2:22.18   |      258472      |     269139     
      26  | 59:48.40 |    2:23.30   |      269140      |     279894     
      27  | 62:11.70 |    2:20.00   |      279895      |     290394     
      28  | 64:31.70 |    2:16.57   |      290395      |     300651     
      29  | 66:48.52 |    2:50.15   |      300652      |     313416     
      30  | 69:38.67 |    2:43.65   |      313417      |     325706     

Характеристики диапазона извлечения и сообщения об ошибках

Выбранный диапазон

     Имя файла M:\Сборники\Сборники СОЮЗ\Союз-21 (1997) lossless, non-stop\Союз-21.wav

     Пиковый уровень 98.8 %
     Качество диапазона 99.9 %
     CRC теста EA433A21
     CRC копии EA433A21
     Копирование... OK

Ошибок не произошло

 
AccurateRip: сводка
 
Трек  1  нет в базе данных
Трек  2  нет в базе данных
Трек  3  нет в базе данных
Трек  4  нет в базе данных
Трек  5  нет в базе данных
Трек  6  нет в базе данных
Трек  7  нет в базе данных
Трек  8  нет в базе данных
Трек  9  нет в базе данных
Трек 10  нет в базе данных
Трек 11  нет в базе данных
Трек 12  нет в базе данных
Трек 13  нет в базе данных
Трек 14  нет в базе данных
Трек 15  нет в базе данных
Трек 16  нет в базе данных
Трек 17  нет в базе данных
Трек 18  нет в базе данных
Трек 19  нет в базе данных
Трек 20  нет в базе данных
Трек 21  нет в базе данных
Трек 22  нет в базе данных
Трек 23  нет в базе данных
Трек 24  нет в базе данных
Трек 25  нет в базе данных
Трек 26  нет в базе данных
Трек 27  нет в базе данных
Трек 28  нет в базе данных
Трек 29  нет в базе данных
Трек 30  нет в базе данных
 
Ни одного трека нет в базе AccurateRip

Конец отчёта
Релиз: pic


Мне диски подогнали союза, а они оказались пиратками.
Бывает. Союз очень часто подделывали.

Страница 1 из 1

new_topic  reply_topic

Текущее время: 24-Ноя 13:00
Часовой пояс: GMT + 4

m Сделано с любовью PR-CY.ru Каталог webplus.info