Вход на сайт

Имя:
Пароль:

· Забыли пароль?
logo
Портал Форум
Регистрация Вход


new_topic  reply_topic

  (Euro House) Masterboy – The Best 2006, FLAC (image + .cue)

pic
Год выпуска: 2006
Страна: Russia
Жанр: Euro House
Номер #: ТР-301
Продолжительность: ~71min

Тип издания: альбом
Аудио кодек: FLAC
Тип рипа: (image + .cue)
Битрейт аудио: lossless

Треклист:

1 Feel The Heat Of The Night 3:45
2 Generation Of Love 3:38
3 Anybody 3:52
4 Dance To The Beat 3:44
5 Shake It Up And Dance 3:37
6 Is This The Love 3:43
7 I Got To Give It Up 3:35
8 Mr. Feeling 3:50
9 Show Me Colours 3:33
10 Land Of Dreaming 3:34
11 Porque Te Vas 3:26
12 Just 4 You 3:44
13 I Need A Lover Tonight 3:57
14 Feel The Heat Of The Night 2003 3:34
15 Diffrent Dreams 3:44
16 Everybody Needs Somebody 3:56
17 Ice Ice Baby 3:29
18 Say Yeah 3:35
19 Lucky Lie 3:24

Код:

Exact Audio Copy V0.99 prebeta 5 from 4. May 2009

Отчёт EAC об извлечении, выполненном 14. июля 2011, 21:32

Masterboy / The Best

Дисковод: Optiarc DVD RW AD-7170A   Adapter: 2  ID: 0

Режим чтения                 : Достоверность
Использование точного потока : Да
Отключение кэша аудио        : Да
Использование указателей C2  : Нет

Коррекция смещения при чтении                     : 48
Способность читать области Lead-in и Lead-out     : Нет
Заполнение пропущенных сэмплов тишиной            : Да
Удаление блоков с тишиной в начале и конце        : Нет
При вычислениях CRC использовались нулевые сэмплы : Да
Интерфейс                                         : Установленный внешний ASPI-интерфейс

Выходной формат : Внутренние WAV-операции
Формат сэмплов  : 44.100 Гц; 16 бит; стерео

TOC извлечённого CD

     Трек |   Старт  | Длительность | Начальный сектор | Конечный сектор
    ---------------------------------------------------------------------
       1  |  0:00.00 |    3:43.45   |           0      |      16769     
       2  |  3:43.45 |    3:41.25   |       16770      |      33369     
       3  |  7:24.70 |    3:56.06   |       33370      |      51075     
       4  | 11:21.01 |    3:47.45   |       51076      |      68145     
       5  | 15:08.46 |    3:35.08   |       68146      |      84278     
       6  | 18:43.54 |    3:46.30   |       84279      |     101258     
       7  | 22:30.09 |    3:38.35   |      101259      |     117643     
       8  | 26:08.44 |    3:54.32   |      117644      |     135225     
       9  | 30:03.01 |    3:36.35   |      135226      |     151460     
      10  | 33:39.36 |    3:34.22   |      151461      |     167532     
      11  | 37:13.58 |    3:29.53   |      167533      |     183260     
      12  | 40:43.36 |    3:46.60   |      183261      |     200270     
      13  | 44:30.21 |    4:07.08   |      200271      |     218803     
      14  | 48:37.29 |    3:39.30   |      218804      |     235258     
      15  | 52:16.59 |    3:47.22   |      235259      |     252305     
      16  | 56:04.06 |    3:58.10   |      252306      |     270165     
      17  | 60:02.16 |    3:32.47   |      270166      |     286112     
      18  | 63:34.63 |    3:38.12   |      286113      |     302474     
      19  | 67:13.00 |    3:25.06   |      302475      |     317855     

Характеристики диапазона извлечения и сообщения об ошибках

Выбранный диапазон

     Имя файла G:\SeaMan\Masterboy - The Best.wav

     Пиковый уровень 100.0 %
     Качество диапазона 99.9 %
     CRC теста CD540B1F
     CRC копии CD540B1F
     Копирование... OK

Ошибок не произошло

 
AccurateRip: сводка
 
Трек  1  точное извлечение (доверие 3)  [092B49F5]
Трек  2  точное извлечение (доверие 3)  [00DF0C5E]
Трек  3  точное извлечение (доверие 3)  [8AFB337A]
Трек  4  точное извлечение (доверие 3)  [6167EA0B]
Трек  5  точное извлечение (доверие 3)  [E278EB3C]
Трек  6  точное извлечение (доверие 3)  [BEEC43B8]
Трек  7  точное извлечение (доверие 3)  [FA52AE74]
Трек  8  точное извлечение (доверие 3)  [16B4D1CA]
Трек  9  точное извлечение (доверие 3)  [D5E54E42]
Трек 10  точное извлечение (доверие 3)  [DF5E7880]
Трек 11  точное извлечение (доверие 2)  [E0B92C7B]
Трек 12  точное извлечение (доверие 3)  [543CDDC2]
Трек 13  точное извлечение (доверие 3)  [93D76453]
Трек 14  точное извлечение (доверие 3)  [AB8DE130]
Трек 15  точное извлечение (доверие 3)  [2715AD57]
Трек 16  точное извлечение (доверие 2)  [D7478B98]
Трек 17  точное извлечение (доверие 2)  [253B9238]
Трек 18  точное извлечение (доверие 3)  [745491F2]
Трек 19  точное извлечение (доверие 2)  [85C4E4D1]
 
Все треки извлечены точно

Конец отчёта
MNP спасибо, заценю русскую компиляшку

Страница 1 из 1

new_topic  reply_topic

Текущее время: 17-Окт 07:19
Часовой пояс: GMT + 4

m Сделано с любовью PR-CY.ru Каталог webplus.info