Вход на сайт

Имя:
Пароль:

· Забыли пароль?
logo
Портал Форум
Регистрация Вход


new_topic  reply_topic

  (Pop) СОЮЗ Пионерский №2. 2010, APE (image + .cue)

pic
Год выпуска: 2010
Страна: Россия
Жанр: Pop
Номер #: SZCD 7078-10 (Студия "СОЮЗ")
Продолжительность: 0:52:52

Тип издания: сборник
Аудио кодек: APE
Тип рипа: (image + .cue)
Битрейт аудио: lossless

1. Леприконсы - Хали Гали
2. Татьяна Буланова - Мой ненаглядный
3. Алена Апина - Электричка
4. Любовь Успенская - Карусель
5. Жуки - Батарейка
6. Arash feat. Анна Семенович - На моря
7. Горячие головы - Бананылопалабомба
8. Кай Метов - Вспомни меня
9. Игорек - Бросай бухать!
10. Унесенные ветром - Полтергейст
11. Александр Айвазов - Лилии
12. Ахи-вздохи - Малолетка (дура-дурой)
13. Дюна - Страна Лимония
14. Наталья Сенчукова - Небо №7
15. Балаган Лимитед - Че те надо?


"СОЮЗ Пионерский №2"- долгожданное продолжение предыдущего сборника, "СОЮЗ Пионерский №1", который разошелся огромным тиражом. Сборник содержит самые яркие хиты поп-музыки 1990-х - начала 2000-х гг в исполнении Татьяны Булановой, Алены Апиной, Кая Метова, Александра Айвазова, группы "Жуки", "Дюна" и других популярных артистов прошлого десятилетия.

Данный сборник НЕ является пиратской сборкой, коих сейчас под лейблом «СОЮЗ» штампуется крайне много! Это официальный релиз от студии «СОЮЗ»! И крайне приятно, что они решились-таки выпустить сборник с песнями 90-х, а не современный ширпотреб как они это делают. Конечно, сборка такого альбома могла бы быть и получше, однако и эта вполне себе ничего!

Код:

Exact Audio Copy V0.99 prebeta 5 from 4. May 2009

Отчёт EAC об извлечении, выполненном 11. января 2011, 21:02

Various / СОЮЗ Пионерский №2

Дисковод: TSSTcorpCDDVDW SH-S223B   Adapter: 2  ID: 0

Режим чтения                 : Достоверность
Использование точного потока : Да
Отключение кэша аудио        : Да
Использование указателей C2  : Нет

Коррекция смещения при чтении                     : 6
Способность читать области Lead-in и Lead-out     : Нет
Заполнение пропущенных сэмплов тишиной            : Да
Удаление блоков с тишиной в начале и конце        : Нет
При вычислениях CRC использовались нулевые сэмплы : Да
Интерфейс                                         : Встроенный Win32-интерфейс для Win NT/2000

Выходной формат : Внутренние WAV-операции
Формат сэмплов  : 44.100 Гц; 16 бит; стерео

TOC извлечённого CD

     Трек |   Старт  | Длительность | Начальный сектор | Конечный сектор
    ---------------------------------------------------------------------
       1  |  0:00.00 |    4:05.62   |           0      |      18436     
       2  |  4:05.62 |    2:45.27   |       18437      |      30838     
       3  |  6:51.14 |    4:34.13   |       30839      |      51401     
       4  | 11:25.27 |    4:36.00   |       51402      |      72101     
       5  | 16:01.27 |    3:46.56   |       72102      |      89107     
       6  | 19:48.08 |    2:44.31   |       89108      |     101438     
       7  | 22:32.39 |    3:05.60   |      101439      |     115373     
       8  | 25:38.24 |    3:41.10   |      115374      |     131958     
       9  | 29:19.34 |    2:55.13   |      131959      |     145096     
      10  | 32:14.47 |    3:06.40   |      145097      |     159086     
      11  | 35:21.12 |    3:32.05   |      159087      |     174991     
      12  | 38:53.17 |    3:12.31   |      174992      |     189422     
      13  | 42:05.48 |    3:34.66   |      189423      |     205538     
      14  | 45:40.39 |    3:16.45   |      205539      |     220283     
      15  | 48:57.09 |    3:55.00   |      220284      |     237908     

Характеристики диапазона извлечения и сообщения об ошибках

Выбранный диапазон

     Имя файла M:\Сборники\СОЮЗ Пионерский №2\СОЮЗ Пионерский №2.wav

     Пиковый уровень 98.9 %
     Качество диапазона 100.0 %
     CRC теста C6DAEF47
     CRC копии C6DAEF47
     Копирование... OK

Ошибок не произошло

 
AccurateRip: сводка
 
Трек  1  точность не определена (достоверность 1)  [F04B1429], AccurateRip вернул [B764209F]
Трек  2  точность не определена (достоверность 1)  [D5897C2A], AccurateRip вернул [5B9D4AD0]
Трек  3  точность не определена (достоверность 1)  [34F051F0], AccurateRip вернул [39A30FAB]
Трек  4  точность не определена (достоверность 1)  [6C185D40], AccurateRip вернул [702BA8C8]
Трек  5  точность не определена (достоверность 1)  [DF998191], AccurateRip вернул [5909435E]
Трек  6  точность не определена (достоверность 1)  [3E065A10], AccurateRip вернул [6DDDF98A]
Трек  7  точность не определена (достоверность 1)  [2280C597], AccurateRip вернул [E2D3E723]
Трек  8  точность не определена (достоверность 1)  [BF7416B1], AccurateRip вернул [ED69C416]
Трек  9  точность не определена (достоверность 1)  [056AF2AE], AccurateRip вернул [F98F4DDB]
Трек 10  точность не определена (достоверность 1)  [21A0098C], AccurateRip вернул [65293EBC]
Трек 11  точность не определена (достоверность 1)  [A9930375], AccurateRip вернул [2B2984A8]
Трек 12  точность не определена (достоверность 1)  [01363106], AccurateRip вернул [3A5BD00A]
Трек 13  точность не определена (достоверность 1)  [AB0E503E], AccurateRip вернул [01E27A15]
Трек 14  точность не определена (достоверность 1)  [7DE6D69C], AccurateRip вернул [9A5FE342]
Трек 15  точность не определена (достоверность 1)  [4BD4C167], AccurateRip вернул [B689541B]
 
Ни один трек не прошёл проверки на точность
В вашей базе может быть иной вариант штамповки диска

Конец отчёта
pic pic pic
Релиз: pic


Страница 1 из 1

new_topic  reply_topic

Текущее время: 24-Ноя 12:57
Часовой пояс: GMT + 4

m Сделано с любовью PR-CY.ru Каталог webplus.info