Вход на сайт

Имя:
Пароль:

· Забыли пароль?
logo
Портал Форум
Регистрация Вход


new_topic  reply_topic

  (Pop) СОЮЗ Пионерский №3. 2010, FLAC (image + .cue)

pic
Год выпуска: 2010
Страна: Россия
Жанр: Pop
Номер #: SZCD 7204-11 (Студия "СОЮЗ")
Продолжительность: 0:55:09

Тип издания: сборник
Аудио кодек: FLAC
Тип рипа: (image + .cue)
Битрейт аудио: lossless

1. Ирина Салтыкова - Серые глаза
2. Унесенные ветром - Американцы
3. Наталья Сенчукова и Виктор Рыбин - Ни слова о любви
4. Вячеслав Быков - Любимая моя
5. Жуки - Зуб
6. Отпетые мошенники - Девушки (бывают разные)
7. Алиса Мон - Алмаз
8. Вадим Байков - У меня нет жены
9. Демо - Солнышко
10. Александр Айвазов - Тойота 2010
11. Божья Коровка - Гранитный камушек
12. Дюна - Привет с большого бодуна
13. Двое - Зной
14. Рок-острова - Ничего не говори
15. Иван Купала & Дискотека "Авария" - Кострома (Дискотека Авария remix)


"СОЮЗ Пионерский №3" - эпическое продолжение двух предыдущих сборников, выпуск которых стал регулярным из-за бешеной популярности у слушателей. Новый сборник - романтический, с нотками мечтательности, задорный, с нотками юмора и по традиции суперзажигательный! Сборник "Пионерский № 3" освежит воспоминания о той весне, когда в первый раз были сказаны самые главные слова: "Я тебя люблю!".

Данный сборник НЕ является пиратской сборкой, коих сейчас под лейблом «СОЮЗ» штампуется крайне много! Это официальный релиз от студии «СОЮЗ»! И крайне приятно, что они решились-таки выпустить сборник с песнями 90-х, а не современный ширпотреб как они это делают. Конечно, сборка такого альбома могла бы быть и получше, однако и эта вполне себе ничего!

Код:

Exact Audio Copy V0.99 prebeta 5 from 4. May 2009

Отчёт EAC об извлечении, выполненном 22. августа 2011, 22:02

Various / СОЮЗ Пионерский №3

Дисковод: TSSTcorpCDDVDW SH-S223B   Adapter: 2  ID: 0

Режим чтения                 : Достоверность
Использование точного потока : Да
Отключение кэша аудио        : Да
Использование указателей C2  : Нет

Коррекция смещения при чтении                     : 6
Способность читать области Lead-in и Lead-out     : Нет
Заполнение пропущенных сэмплов тишиной            : Да
Удаление блоков с тишиной в начале и конце        : Нет
При вычислениях CRC использовались нулевые сэмплы : Да
Интерфейс                                         : Встроенный Win32-интерфейс для Win NT/2000

Выходной формат : Внутренние WAV-операции
Формат сэмплов  : 44.100 Гц; 16 бит; стерео

TOC извлечённого CD

     Трек |   Старт  | Длительность | Начальный сектор | Конечный сектор
    ---------------------------------------------------------------------
       1  |  0:00.00 |    3:29.08   |           0      |      15682     
       2  |  3:29.08 |    2:55.35   |       15683      |      28842     
       3  |  6:24.43 |    4:57.15   |       28843      |      51132     
       4  | 11:21.58 |    4:06.16   |       51133      |      69598     
       5  | 15:27.74 |    2:18.72   |       69599      |      80020     
       6  | 17:46.71 |    3:56.39   |       80021      |      97759     
       7  | 21:43.35 |    3:39.00   |       97760      |     114184     
       8  | 25:22.35 |    3:09.16   |      114185      |     128375     
       9  | 28:31.51 |    4:19.24   |      128376      |     147824     
      10  | 32:51.00 |    4:21.59   |      147825      |     167458     
      11  | 37:12.59 |    5:15.32   |      167459      |     191115     
      12  | 42:28.16 |    2:22.73   |      191116      |     201838     
      13  | 44:51.14 |    3:25.07   |      201839      |     217220     
      14  | 48:16.21 |    3:36.25   |      217221      |     233445     
      15  | 51:52.46 |    3:16.69   |      233446      |     248214     

Характеристики диапазона извлечения и сообщения об ошибках

Выбранный диапазон

     Имя файла M:\Сборники\СОЮЗ Пионерский №3\СОЮЗ Пионерский №3.wav

     Пиковый уровень 99.9 %
     Качество диапазона 100.0 %
     CRC теста 17B9F7BE
     CRC копии 17B9F7BE
     Копирование... OK

Ошибок не произошло

 
AccurateRip: сводка
 
Трек  1  нет в базе данных
Трек  2  нет в базе данных
Трек  3  нет в базе данных
Трек  4  нет в базе данных
Трек  5  нет в базе данных
Трек  6  нет в базе данных
Трек  7  нет в базе данных
Трек  8  нет в базе данных
Трек  9  нет в базе данных
Трек 10  нет в базе данных
Трек 11  нет в базе данных
Трек 12  нет в базе данных
Трек 13  нет в базе данных
Трек 14  нет в базе данных
Трек 15  нет в базе данных
 
Ни одного трека нет в базе AccurateRip

Конец отчёта
pic pic pic
Релиз: pic


Страница 1 из 1

new_topic  reply_topic

Текущее время: 24-Ноя 13:49
Часовой пояс: GMT + 4

m Сделано с любовью PR-CY.ru Каталог webplus.info