Вход на сайт

Имя:
Пароль:

· Забыли пароль?
logo
Портал Форум
Регистрация Вход


new_topic  reply_topic

  (Pop) Союз 14, non-stop - 1995, FLAC (image + .cue)

pic
Год выпуска: 1995
Страна: Россия
Жанр: Pop
Номер #: SZCD 0353-95 (Студия "СОЮЗ")
Продолжительность: 1:04:09

Тип издания: сборник
Аудио кодек: FLAC
Тип рипа: (image + .cue)
Битрейт аудио: lossless

Треклист:
  1. Браво - Дорога в Облака
  2. Л.Мялик - Юрочка
  3. Ирина Аллегрова - Безответная Любовь
  4. Влад Сташевский - Сумасшедшая Луна
  5. Анжелика Варум - Осенний Джаз
  6. МГК - С Тобой Танцуем
  7. А.Айвазов - Лилии
  8. Владимир Пресняков - Маша
  9. София Ротару - Мотылёк
  10. Агата Кристи - Как На Войне
  11. Филипп Киркоров - Марина
  12. Наташа Королёва - Конфетти
  13. С.Чумаков - Хорошо-Хорошо На Море
  14. Сергей Крылов - В Притоне Катманду
  15. Валерий Сюткин - 7000 Тысяч Над Землёй
  16. МГК - Индийский Океан
  17. Божья Коровка - Гранитный Камушек
  18. М.Журавлёва - Играй, Гитара
  19. Валерий Меладзе - Поздняя Любовь
  20. Кабаре-Дуэт " Академия " - Хочешь, Но Молчишь
  21. Игорь Саруханов - Сима
  22. Вика Циганова - Когда Вернусь В Россию

Код:

Exact Audio Copy V0.99 prebeta 5 from 4. May 2009

Отчёт EAC об извлечении, выполненном 4. сентября 2011, 17:35

Various / Союз-14

Дисковод: TSSTcorpCDDVDW SH-S223B   Adapter: 2  ID: 0

Режим чтения                 : Достоверность
Использование точного потока : Да
Отключение кэша аудио        : Да
Использование указателей C2  : Нет

Коррекция смещения при чтении                     : 6
Способность читать области Lead-in и Lead-out     : Нет
Заполнение пропущенных сэмплов тишиной            : Да
Удаление блоков с тишиной в начале и конце        : Нет
При вычислениях CRC использовались нулевые сэмплы : Да
Интерфейс                                         : Встроенный Win32-интерфейс для Win NT/2000

Выходной формат : Внутренние WAV-операции
Формат сэмплов  : 44.100 Гц; 16 бит; стерео

TOC извлечённого CD

     Трек |   Старт  | Длительность | Начальный сектор | Конечный сектор
    ---------------------------------------------------------------------
       1  |  0:00.05 |    3:28.62   |           5      |      15666     
       2  |  3:28.67 |    2:38.15   |       15667      |      27531     
       3  |  6:07.07 |    3:17.60   |       27532      |      42366     
       4  |  9:24.67 |    2:03.23   |       42367      |      51614     
       5  | 11:28.15 |    3:49.25   |       51615      |      68814     
       6  | 15:17.40 |    2:12.62   |       68815      |      78776     
       7  | 17:30.27 |    2:18.28   |       78777      |      89154     
       8  | 19:48.55 |    3:56.17   |       89155      |     106871     
       9  | 23:44.72 |    3:07.55   |      106872      |     120951     
      10  | 26:52.52 |    3:58.03   |      120952      |     138804     
      11  | 30:50.55 |    2:33.42   |      138805      |     150321     
      12  | 33:24.22 |    2:19.53   |      150322      |     160799     
      13  | 35:44.00 |    2:10.60   |      160800      |     170609     
      14  | 37:54.60 |    2:41.07   |      170610      |     182691     
      15  | 40:35.67 |    3:28.08   |      182692      |     198299     
      16  | 44:04.00 |    3:04.05   |      198300      |     212104     
      17  | 47:08.05 |    2:14.10   |      212105      |     222164     
      18  | 49:22.15 |    2:12.30   |      222165      |     232094     
      19  | 51:34.45 |    3:24.32   |      232095      |     247426     
      20  | 54:59.02 |    2:43.68   |      247427      |     259719     
      21  | 57:42.70 |    3:06.57   |      259720      |     273726     
      22  | 60:49.52 |    3:19.25   |      273727      |     288676     

Характеристики диапазона извлечения и сообщения об ошибках

Выбранный диапазон

     Имя файла M:\Сборники\Сборники СОЮЗ\Союз-14 (1995) lossless, non-stop\Союз-14.wav

     Пиковый уровень 89.1 %
     Качество диапазона 100.0 %
     CRC теста 1955E06D
     CRC копии 1955E06D
     Копирование... OK

Ошибок не произошло

 
AccurateRip: сводка
 
Трек  1  нет в базе данных
Трек  2  нет в базе данных
Трек  3  нет в базе данных
Трек  4  нет в базе данных
Трек  5  нет в базе данных
Трек  6  нет в базе данных
Трек  7  нет в базе данных
Трек  8  нет в базе данных
Трек  9  нет в базе данных
Трек 10  нет в базе данных
Трек 11  нет в базе данных
Трек 12  нет в базе данных
Трек 13  нет в базе данных
Трек 14  нет в базе данных
Трек 15  нет в базе данных
Трек 16  нет в базе данных
Трек 17  нет в базе данных
Трек 18  нет в базе данных
Трек 19  нет в базе данных
Трек 20  нет в базе данных
Трек 21  нет в базе данных
Трек 22  нет в базе данных
 
Ни одного трека нет в базе AccurateRip

Конец отчёта
Релиз: pic


Страница 1 из 1

new_topic  reply_topic

Текущее время: 28-Ноя 05:41
Часовой пояс: GMT + 4

m Сделано с любовью PR-CY.ru Каталог webplus.info