Вход на сайт

Имя:
Пароль:

· Забыли пароль?
logo
Портал Форум
Регистрация Вход


new_topic  reply_topic

  (Pop) Союз 24, full - 1999, FLAC (image + .cue)

pic
Год выпуска: 1999
Страна: Россия
Жанр: Pop
Номер #: SZCD 1200-99 (Студия "СОЮЗ")
Продолжительность: 1:09:35 + 1:08:51

Тип издания: сборник
Аудио кодек: FLAC
Тип рипа: (image + .cue)
Битрейт аудио: lossless

Треклист:

CD1

  1. Гости из будущего - Беги от меня
  2. Hi-Fi - Беспризорник
  3. Алсу - Зимний сон
  4. Иван Купала - Кострома
  5. Премьер-министр - Атомное чувство любовь
  6. Стрелки - Ты бросил меня
  7. Дискотека Авария vs. Ляпис Трубецкой - Авария против Ляписа: Кинула
  8. Тин-тин - В платье из дождя
  9. Линда - Золотая вода
  10. Александр Маршал - Ливень
  11. НВ - Пятнистый ягуар
  12. Ирина Салтыкова - Солнечный друг
  13. Место встречи - От заката до рассвета
  14. Николай Трубач и Борис Моисеев - Щелкунчик
  15. Ахи-вздохи - Малолетка (Дура-дурой)
  16. Все свои - Непутёвая девочка
  17. Владимир Девятов - Реченька-речушка


CD2

  1. Валерий Меладзе - Красиво
  2. ИZЮМ - Нам не по пути
  3. Валерия Лесовская - Алло! Алло!
  4. Виктор Салтыков - Небо стало серым
  5. Ляпис Трубецкой - Яблони
  6. Вячеслав Быков - Ты дождись меня
  7. Шао? Бао! - Самба Шао? Бао!
  8. Лариса Черникова - Ты не приходи
  9. Александр Иванов - Московская осень
  10. Александр Малинин - Нет пути назад
  11. Андрей Губин - О тебе мечтаю я
  12. Дуэт "Карамельки" - Пум-пам
  13. Филипп Киркоров - Дива
  14. Наши - Кисочка
  15. Золотое кольцо - Зачем это лето
  16. Анжелика Варум - Колыбельная
  17. Дискотека Авария - Некуда деваться

Код:

Exact Audio Copy V0.99 prebeta 5 from 4. May 2009

Отчёт EAC об извлечении, выполненном 8. сентября 2011, 22:17

Various / Союз-24. CD1

Дисковод: SlimtypeDVD A  DS8A3S   Adapter: 1  ID: 0

Режим чтения                 : Достоверность
Использование точного потока : Да
Отключение кэша аудио        : Да
Использование указателей C2  : Нет

Коррекция смещения при чтении                     : 6
Способность читать области Lead-in и Lead-out     : Нет
Заполнение пропущенных сэмплов тишиной            : Да
Удаление блоков с тишиной в начале и конце        : Нет
При вычислениях CRC использовались нулевые сэмплы : Да
Интерфейс                                         : Встроенный Win32-интерфейс для Win NT/2000

Выходной формат : Внутренние WAV-операции
Формат сэмплов  : 44.100 Гц; 16 бит; стерео

TOC извлечённого CD

     Трек |   Старт  | Длительность | Начальный сектор | Конечный сектор
    ---------------------------------------------------------------------
       1  |  0:00.10 |    4:45.56   |          10      |      21440     
       2  |  4:45.66 |    3:46.48   |       21441      |      38438     
       3  |  8:32.39 |    4:20.14   |       38439      |      57952     
       4  | 12:52.53 |    3:32.62   |       57953      |      73914     
       5  | 16:25.40 |    3:30.17   |       73915      |      89681     
       6  | 19:55.57 |    4:34.62   |       89682      |     110293     
       7  | 24:30.44 |    4:44.33   |      110294      |     131626     
       8  | 29:15.02 |    4:37.09   |      131627      |     152410     
       9  | 33:52.11 |    4:04.00   |      152411      |     170710     
      10  | 37:56.11 |    3:51.36   |      170711      |     188071     
      11  | 41:47.47 |    3:58.68   |      188072      |     205989     
      12  | 45:46.40 |    4:00.36   |      205990      |     224025     
      13  | 49:47.01 |    4:01.65   |      224026      |     242165     
      14  | 53:48.66 |    4:50.46   |      242166      |     263961     
      15  | 58:39.37 |    3:12.09   |      263962      |     278370     
      16  | 61:51.46 |    3:39.67   |      278371      |     294862     
      17  | 65:31.38 |    4:04.10   |      294863      |     313172     

Характеристики диапазона извлечения и сообщения об ошибках

Выбранный диапазон

     Имя файла M:\Союз-24 (1999) lossless, full\CD1\Союз-24. CD1.wav

     Пиковый уровень 100.0 %
     Качество диапазона 100.0 %
     CRC теста 48838788
     CRC копии 48838788
     Копирование... OK

Ошибок не произошло

 
AccurateRip: сводка
 
Трек  1  нет в базе данных
Трек  2  нет в базе данных
Трек  3  нет в базе данных
Трек  4  нет в базе данных
Трек  5  нет в базе данных
Трек  6  нет в базе данных
Трек  7  нет в базе данных
Трек  8  нет в базе данных
Трек  9  нет в базе данных
Трек 10  нет в базе данных
Трек 11  нет в базе данных
Трек 12  нет в базе данных
Трек 13  нет в базе данных
Трек 14  нет в базе данных
Трек 15  нет в базе данных
Трек 16  нет в базе данных
Трек 17  нет в базе данных
 
Ни одного трека нет в базе AccurateRip

Конец отчёта

Код:

Exact Audio Copy V0.99 prebeta 5 from 4. May 2009

Отчёт EAC об извлечении, выполненном 8. сентября 2011, 22:35

Various / Союз-24. CD2

Дисковод: SlimtypeDVD A  DS8A3S   Adapter: 1  ID: 0

Режим чтения                 : Достоверность
Использование точного потока : Да
Отключение кэша аудио        : Да
Использование указателей C2  : Нет

Коррекция смещения при чтении                     : 6
Способность читать области Lead-in и Lead-out     : Нет
Заполнение пропущенных сэмплов тишиной            : Да
Удаление блоков с тишиной в начале и конце        : Нет
При вычислениях CRC использовались нулевые сэмплы : Да
Интерфейс                                         : Встроенный Win32-интерфейс для Win NT/2000

Выходной формат : Внутренние WAV-операции
Формат сэмплов  : 44.100 Гц; 16 бит; стерео

TOC извлечённого CD

     Трек |   Старт  | Длительность | Начальный сектор | Конечный сектор
    ---------------------------------------------------------------------
       1  |  0:00.10 |    4:44.44   |          10      |      21353     
       2  |  4:44.54 |    4:09.40   |       21354      |      40068     
       3  |  8:54.19 |    3:20.74   |       40069      |      55142     
       4  | 12:15.18 |    3:50.11   |       55143      |      72403     
       5  | 16:05.29 |    5:33.54   |       72404      |      97432     
       6  | 21:39.08 |    3:48.53   |       97433      |     114585     
       7  | 25:27.61 |    4:54.55   |      114586      |     136690     
       8  | 30:22.41 |    3:56.42   |      136691      |     154432     
       9  | 34:19.08 |    5:17.58   |      154433      |     178265     
      10  | 39:36.66 |    3:31.58   |      178266      |     194148     
      11  | 43:08.49 |    4:09.40   |      194149      |     212863     
      12  | 47:18.14 |    3:23.36   |      212864      |     228124     
      13  | 50:41.50 |    3:31.07   |      228125      |     243956     
      14  | 54:12.57 |    2:51.49   |      243957      |     256830     
      15  | 57:04.31 |    3:25.49   |      256831      |     272254     
      16  | 60:30.05 |    4:13.60   |      272255      |     291289     
      17  | 64:43.65 |    4:08.07   |      291290      |     309896     

Характеристики диапазона извлечения и сообщения об ошибках

Выбранный диапазон

     Имя файла M:\Союз-24 (1999) lossless, full\CD2\Союз-24. CD2.wav

     Пиковый уровень 100.0 %
     Качество диапазона 100.0 %
     CRC теста 8947DCE9
     CRC копии 8947DCE9
     Копирование... OK

Ошибок не произошло

 
AccurateRip: сводка
 
Трек  1  нет в базе данных
Трек  2  нет в базе данных
Трек  3  нет в базе данных
Трек  4  нет в базе данных
Трек  5  нет в базе данных
Трек  6  нет в базе данных
Трек  7  нет в базе данных
Трек  8  нет в базе данных
Трек  9  нет в базе данных
Трек 10  нет в базе данных
Трек 11  нет в базе данных
Трек 12  нет в базе данных
Трек 13  нет в базе данных
Трек 14  нет в базе данных
Трек 15  нет в базе данных
Трек 16  нет в базе данных
Трек 17  нет в базе данных
 
Ни одного трека нет в базе AccurateRip

Конец отчёта
Релиз: pic


Страница 1 из 1

new_topic  reply_topic

Текущее время: 28-Ноя 06:23
Часовой пояс: GMT + 4

m Сделано с любовью PR-CY.ru Каталог webplus.info