Вход на сайт

Имя:
Пароль:

· Забыли пароль?
logo
Портал Форум
Регистрация Вход


new_topic  reply_topic

  (Pop) Союз 26, non-stop - 2000, FLAC (image + .cue)

pic
Год выпуска: 2000
Страна: Россия
Жанр: Pop
Номер #: SZCD 1218-00 (Студия "СОЮЗ")
Продолжительность: 1:13:34

Тип издания: сборник
Аудио кодек: FLAC
Тип рипа: (image + .cue)
Битрейт аудио: lossless

Треклист:
  1. Руки вверх! - Ай-яй-яй
  2. Валерия - Метелица
  3. Александр Иванов - Счастье на двоих
  4. Natasha - Баю-баю
  5. Андрей Губин - Было, но прошло
  6. Karapuzikee - Коврик прикроватный (3 шт.)
  7. S.P.O.R.T. - Рыбалка
  8. Кристина Орбакайте - 10 вечеров
  9. Дмитрий Маликов - Апрель
  10. Мумий тролль - Карнавала.нет
  11. Иван Купала - Молодость
  12. Танцы минус - Цветы
  13. Мюзикола - Я не забуду тебя
  14. Владимир Кузьмин - Зачем уходишь ты (remix)
  15. Маршал - Отпускаю
  16. Дилайла - Однажды ночью…
  17. Леприконсы - Москвич
  18. Игорек - Подождем
  19. Наталья Пушкова - Просто…
  20. Два самолета - Небесное пиво
  21. Лето - Понедельник без тебя
  22. Игорь Саруханов, Николай Трубач - Лодочка
  23. Найк Борзов - Верхом на звезде
  24. Океан Ельзи - Сосны
  25. Небо - Обещала
  26. Вирус - Весна
  27. ИZЮМ - Лети, улетай
  28. Алла Пугачева - Белый снег

Код:

Exact Audio Copy V0.99 prebeta 5 from 4. May 2009

Отчёт EAC об извлечении, выполненном 8. сентября 2011, 23:55

Various / Союз-26

Дисковод: SlimtypeDVD A  DS8A3S   Adapter: 1  ID: 0

Режим чтения                 : Достоверность
Использование точного потока : Да
Отключение кэша аудио        : Да
Использование указателей C2  : Нет

Коррекция смещения при чтении                     : 6
Способность читать области Lead-in и Lead-out     : Нет
Заполнение пропущенных сэмплов тишиной            : Да
Удаление блоков с тишиной в начале и конце        : Нет
При вычислениях CRC использовались нулевые сэмплы : Да
Интерфейс                                         : Встроенный Win32-интерфейс для Win NT/2000

Выходной формат : Внутренние WAV-операции
Формат сэмплов  : 44.100 Гц; 16 бит; стерео

TOC извлечённого CD

     Трек |   Старт  | Длительность | Начальный сектор | Конечный сектор
    ---------------------------------------------------------------------
       1  |  0:00.00 |    2:37.16   |           0      |      11790     
       2  |  2:37.16 |    2:25.27   |       11791      |      22692     
       3  |  5:02.43 |    2:16.28   |       22693      |      32920     
       4  |  7:18.71 |    2:20.30   |       32921      |      43450     
       5  |  9:39.26 |    2:21.22   |       43451      |      54047     
       6  | 12:00.48 |    1:53.14   |       54048      |      62536     
       7  | 13:53.62 |    2:49.31   |       62537      |      75242     
       8  | 16:43.18 |    2:05.19   |       75243      |      84636     
       9  | 18:48.37 |    2:38.61   |       84637      |      96547     
      10  | 21:27.23 |    3:04.17   |       96548      |     110364     
      11  | 24:31.40 |    2:39.36   |      110365      |     122325     
      12  | 27:11.01 |    3:10.17   |      122326      |     136592     
      13  | 30:21.18 |    2:20.43   |      136593      |     147135     
      14  | 32:41.61 |    4:26.37   |      147136      |     167122     
      15  | 37:08.23 |    2:28.20   |      167123      |     178242     
      16  | 39:36.43 |    2:25.35   |      178243      |     189152     
      17  | 42:02.03 |    2:28.33   |      189153      |     200285     
      18  | 44:30.36 |    2:49.14   |      200286      |     212974     
      19  | 47:19.50 |    2:32.56   |      212975      |     224430     
      20  | 49:52.31 |    2:27.42   |      224431      |     235497     
      21  | 52:19.73 |    2:25.44   |      235498      |     246416     
      22  | 54:45.42 |    2:36.28   |      246417      |     258144     
      23  | 57:21.70 |    2:09.20   |      258145      |     267839     
      24  | 59:31.15 |    2:19.44   |      267840      |     278308     
      25  | 61:50.59 |    2:14.43   |      278309      |     288401     
      26  | 64:05.27 |    2:25.07   |      288402      |     299283     
      27  | 66:30.34 |    2:44.65   |      299284      |     311648     
      28  | 69:15.24 |    4:18.67   |      311649      |     331065     

Характеристики диапазона извлечения и сообщения об ошибках

Выбранный диапазон

     Имя файла M:\Союз-26 (2000) lossless, non-stop\Союз 26.wav

     Пиковый уровень 100.0 %
     Качество диапазона 100.0 %
     CRC теста 17371326
     CRC копии 17371326
     Копирование... OK

Ошибок не произошло

 
AccurateRip: сводка
 
Трек  1  нет в базе данных
Трек  2  нет в базе данных
Трек  3  нет в базе данных
Трек  4  нет в базе данных
Трек  5  нет в базе данных
Трек  6  нет в базе данных
Трек  7  нет в базе данных
Трек  8  нет в базе данных
Трек  9  нет в базе данных
Трек 10  нет в базе данных
Трек 11  нет в базе данных
Трек 12  нет в базе данных
Трек 13  нет в базе данных
Трек 14  нет в базе данных
Трек 15  нет в базе данных
Трек 16  нет в базе данных
Трек 17  нет в базе данных
Трек 18  нет в базе данных
Трек 19  нет в базе данных
Трек 20  нет в базе данных
Трек 21  нет в базе данных
Трек 22  нет в базе данных
Трек 23  нет в базе данных
Трек 24  нет в базе данных
Трек 25  нет в базе данных
Трек 26  нет в базе данных
Трек 27  нет в базе данных
Трек 28  нет в базе данных
 
Ни одного трека нет в базе AccurateRip

Конец отчёта
Релиз: pic


Страница 1 из 1

new_topic  reply_topic

Текущее время: 28-Ноя 06:14
Часовой пояс: GMT + 4

m Сделано с любовью PR-CY.ru Каталог webplus.info