Вход на сайт

Имя:
Пароль:

· Забыли пароль?
logo
Портал Форум
Регистрация Вход


new_topic  reply_topic

  (Pop) Союз 31, non-stop - 2002, FLAC (image + .cue)

pic
Год выпуска: 2002
Страна: Россия
Жанр: Pop
Номер #: SZCD 1809-02 (Студия "СОЮЗ")
Продолжительность: 1:16:23

Тип издания: сборник
Аудио кодек: FLAC
Тип рипа: (image + .cue)
Битрейт аудио: lossless

Треклист:
  1. Алла Пугачёва - Только не назад
  2. Андрей Губин - Девушки,как звёзды
  3. Юрий Шатунов - Этот вечер
  4. Иванушки international - Северная звезда
  5. Hi-Fi - Я люблю
  6. Олег Митяев - Западная Сибирь
  7. Жасмин - Головоломка
  8. Турбомода - Белое платье
  9. Планка - На одной ноге
  10. Ленинград - www
  11. Кирпичи - Джедаи
  12. Алёна Свиридова - Без него (remix)
  13. Високосный год - Приносящий удачу
  14. Витас - Интернет настроение
  15. Demo - Не ругай меня
  16. Пропаганда feat. Вой собака вой - Кто (Duduk mix)
  17. Русский размер - До утра
  18. Мираж - Скорость
  19. Запрещенные барабанщики - 1 000 000 долларов США
  20. Гости из будущего - Не говори больше о любви
  21. Поющие вместе - Маленькое чудо
  22. Мумий тролль - Морская капуста
  23. Ночные снайперы - Ты дарила мне розы
  24. Всегда! - Колючки
  25. Горячие головы - Не верят девушки
  26. Подъём! - Мышонок (remix)
  27. Иван купала - Пчёлы 2
  28. Любэ - Поёт гитара

Код:

Exact Audio Copy V0.99 prebeta 5 from 4. May 2009

Отчёт EAC об извлечении, выполненном 9. сентября 2011, 0:05

Various / Союз-31

Дисковод: TSSTcorpCDDVDW SH-S223B   Adapter: 2  ID: 0

Режим чтения                 : Достоверность
Использование точного потока : Да
Отключение кэша аудио        : Да
Использование указателей C2  : Нет

Коррекция смещения при чтении                     : 6
Способность читать области Lead-in и Lead-out     : Нет
Заполнение пропущенных сэмплов тишиной            : Да
Удаление блоков с тишиной в начале и конце        : Нет
При вычислениях CRC использовались нулевые сэмплы : Да
Интерфейс                                         : Встроенный Win32-интерфейс для Win NT/2000

Выходной формат : Внутренние WAV-операции
Формат сэмплов  : 44.100 Гц; 16 бит; стерео

TOC извлечённого CD

     Трек |   Старт  | Длительность | Начальный сектор | Конечный сектор
    ---------------------------------------------------------------------
       1  |  0:00.00 |    2:54.01   |           0      |      13050     
       2  |  2:54.01 |    2:10.67   |       13051      |      22867     
       3  |  5:04.68 |    2:29.40   |       22868      |      34082     
       4  |  7:34.33 |    3:13.61   |       34083      |      48618     
       5  | 10:48.19 |    2:05.22   |       48619      |      58015     
       6  | 12:53.41 |    3:31.40   |       58016      |      73880     
       7  | 16:25.06 |    2:16.06   |       73881      |      84086     
       8  | 18:41.12 |    2:16.30   |       84087      |      94316     
       9  | 20:57.42 |    1:58.29   |       94317      |     103195     
      10  | 22:55.71 |    1:58.37   |      103196      |     112082     
      11  | 24:54.33 |    2:24.46   |      112083      |     122928     
      12  | 27:19.04 |    2:33.00   |      122929      |     134403     
      13  | 29:52.04 |    5:17.17   |      134404      |     158195     
      14  | 35:09.21 |    2:51.58   |      158196      |     171078     
      15  | 38:01.04 |    3:30.50   |      171079      |     186878     
      16  | 41:31.54 |    2:01.00   |      186879      |     195953     
      17  | 43:32.54 |    2:20.43   |      195954      |     206496     
      18  | 45:53.22 |    2:18.13   |      206497      |     216859     
      19  | 48:11.35 |    2:22.18   |      216860      |     227527     
      20  | 50:33.53 |    3:20.70   |      227528      |     242597     
      21  | 53:54.48 |    2:17.31   |      242598      |     252903     
      22  | 56:12.04 |    2:18.05   |      252904      |     263258     
      23  | 58:30.09 |    2:41.52   |      263259      |     275385     
      24  | 61:11.61 |    3:20.68   |      275386      |     290453     
      25  | 64:32.54 |    1:41.61   |      290454      |     298089     
      26  | 66:14.40 |    2:06.50   |      298090      |     307589     
      27  | 68:21.15 |    3:40.01   |      307590      |     324090     
      28  | 72:01.16 |    4:22.58   |      324091      |     343798     

Характеристики диапазона извлечения и сообщения об ошибках

Выбранный диапазон

     Имя файла M:\Сборники\Сборники СОЮЗ\Союз-31 (2002) lossless, non-stop\Союз-31.wav

     Пиковый уровень 96.6 %
     Качество диапазона 100.0 %
     CRC теста 22EC1EE4
     CRC копии 22EC1EE4
     Копирование... OK

Ошибок не произошло

 
AccurateRip: сводка
 
Трек  1  нет в базе данных
Трек  2  нет в базе данных
Трек  3  нет в базе данных
Трек  4  нет в базе данных
Трек  5  нет в базе данных
Трек  6  нет в базе данных
Трек  7  нет в базе данных
Трек  8  нет в базе данных
Трек  9  нет в базе данных
Трек 10  нет в базе данных
Трек 11  нет в базе данных
Трек 12  нет в базе данных
Трек 13  нет в базе данных
Трек 14  нет в базе данных
Трек 15  нет в базе данных
Трек 16  нет в базе данных
Трек 17  нет в базе данных
Трек 18  нет в базе данных
Трек 19  нет в базе данных
Трек 20  нет в базе данных
Трек 21  нет в базе данных
Трек 22  нет в базе данных
Трек 23  нет в базе данных
Трек 24  нет в базе данных
Трек 25  нет в базе данных
Трек 26  нет в базе данных
Трек 27  нет в базе данных
Трек 28  нет в базе данных
 
Ни одного трека нет в базе AccurateRip

Конец отчёта
Релиз: pic


Страница 1 из 1

new_topic  reply_topic

Текущее время: 28-Ноя 05:24
Часовой пояс: GMT + 4

m Сделано с любовью PR-CY.ru Каталог webplus.info