Вход на сайт

Имя:
Пароль:

· Забыли пароль?
logo
Портал Форум
Регистрация Вход


new_topic  reply_topic

  (Pop) Союз 30, non-stop - 2002, FLAC (image + .cue)

pic
Год выпуска: 2002
Страна: Россия
Жанр: Pop
Номер #: SZCD 1500-02 (Студия "СОЮЗ")
Продолжительность: 1:17:59

Тип издания: сборник
Аудио кодек: FLAC
Тип рипа: (image + .cue)
Битрейт аудио: lossless

Треклист:
  1. Евро - Я иду тебя искать (2:38)
  2. Отпетые мошенники - Тараканы (2:12)
  3. Иванушки Int - Золотые облака (3:11)
  4. Краски - Ты уже взрослый (2:01)
  5. Андрей Губин - Она одна (2:25)
  6. HI-FI - СШ №7 (2:32)
  7. Татьяна Буланова - Люди как птицы (2:21)
  8. Вирус - Счастье (2:23)
  9. Ленинград - Мне бы в небо (2:13)
  10. Аквариум - Растаманы из глубинки (2:35)
  11. Високосный год - Кино (2:14)
  12. Александр Буйнов - Песня о настоящей любви (2:11)
  13. Беглец - Моя девчонка (2:31)
  14. Тату - Клоуны (2:42)
  15. Любэ - Давай за... (3:24)
  16. Иван Купала - Ящер (3:08)
  17. Филипп Киркоров - Влюбленный и безумно одинокий (2:40)
  18. Роман - Начинаем танцевать (1:54)
  19. Энди+Игорек - Грачи (2:23)
  20. Руки в верх - Уходи (2:35)
  21. КЭТ - Ты если хочешь (1:52)
  22. Девочки - Ведь я такая(красивая сегодня) (2:19)
  23. Дискотека Авария - Disco superstar (4:18)
  24. Звезды дискотек - Ты уйдешь (2:41)
  25. Як-40 - Где-то далеко (1:52)
  26. Надежда Кадышева и Золотое кольцо - Не вернуть обратно (2:27)
  27. Ночные снайперы - Столица (3:04)
  28. Алиса - Бродячий цирк (2:55)
  29. Крематорий - День сурка (2:10)
  30. Би-2 и Чичерина - Мой рок-н-рол (3:57)

Код:

Exact Audio Copy V0.99 prebeta 5 from 4. May 2009

Отчёт EAC об извлечении, выполненном 8. сентября 2011, 23:43

Various / Союз-30

Дисковод: TSSTcorpCDDVDW SH-S223B   Adapter: 2  ID: 0

Режим чтения                 : Достоверность
Использование точного потока : Да
Отключение кэша аудио        : Да
Использование указателей C2  : Нет

Коррекция смещения при чтении                     : 6
Способность читать области Lead-in и Lead-out     : Нет
Заполнение пропущенных сэмплов тишиной            : Да
Удаление блоков с тишиной в начале и конце        : Нет
При вычислениях CRC использовались нулевые сэмплы : Да
Интерфейс                                         : Встроенный Win32-интерфейс для Win NT/2000

Выходной формат : Внутренние WAV-операции
Формат сэмплов  : 44.100 Гц; 16 бит; стерео

TOC извлечённого CD

     Трек |   Старт  | Длительность | Начальный сектор | Конечный сектор
    ---------------------------------------------------------------------
       1  |  0:00.00 |    2:38.22   |           0      |      11871     
       2  |  2:38.22 |    2:12.04   |       11872      |      21775     
       3  |  4:50.26 |    3:11.34   |       21776      |      36134     
       4  |  8:01.60 |    2:01.61   |       36135      |      45270     
       5  | 10:03.46 |    2:25.64   |       45271      |      56209     
       6  | 12:29.35 |    2:32.41   |       56210      |      67650     
       7  | 15:02.01 |    2:21.04   |       67651      |      78229     
       8  | 17:23.05 |    2:23.27   |       78230      |      88981     
       9  | 19:46.32 |    2:13.01   |       88982      |      98957     
      10  | 21:59.33 |    2:35.38   |       98958      |     110620     
      11  | 24:34.71 |    2:13.74   |      110621      |     120669     
      12  | 26:48.70 |    2:11.00   |      120670      |     130494     
      13  | 28:59.70 |    2:31.23   |      130495      |     141842     
      14  | 31:31.18 |    2:42.32   |      141843      |     154024     
      15  | 34:13.50 |    3:23.74   |      154025      |     169323     
      16  | 37:37.49 |    3:08.64   |      169324      |     183487     
      17  | 40:46.38 |    2:40.19   |      183488      |     195506     
      18  | 43:26.57 |    1:54.17   |      195507      |     204073     
      19  | 45:20.74 |    2:23.47   |      204074      |     214845     
      20  | 47:44.46 |    2:35.61   |      214846      |     226531     
      21  | 50:20.32 |    1:52.13   |      226532      |     234944     
      22  | 52:12.45 |    2:19.53   |      234945      |     245422     
      23  | 54:32.23 |    4:18.06   |      245423      |     264778     
      24  | 58:50.29 |    2:41.30   |      264779      |     276883     
      25  | 61:31.59 |    1:52.41   |      276884      |     285324     
      26  | 63:24.25 |    2:27.28   |      285325      |     296377     
      27  | 65:51.53 |    3:04.52   |      296378      |     310229     
      28  | 68:56.30 |    2:55.25   |      310230      |     323379     
      29  | 71:51.55 |    2:10.23   |      323380      |     333152     
      30  | 74:02.03 |    3:57.60   |      333153      |     350987     

Характеристики диапазона извлечения и сообщения об ошибках

Выбранный диапазон

     Имя файла M:\Сборники\Сборники СОЮЗ\Союз-30 (2002) lossless, non-stop\Союз-30.wav

     Пиковый уровень 100.0 %
     Качество диапазона 100.0 %
     CRC теста D1EAD7A1
     CRC копии D1EAD7A1
     Копирование... OK

Ошибок не произошло

 
AccurateRip: сводка
 
Трек  1  нет в базе данных
Трек  2  нет в базе данных
Трек  3  нет в базе данных
Трек  4  нет в базе данных
Трек  5  нет в базе данных
Трек  6  нет в базе данных
Трек  7  нет в базе данных
Трек  8  нет в базе данных
Трек  9  нет в базе данных
Трек 10  нет в базе данных
Трек 11  нет в базе данных
Трек 12  нет в базе данных
Трек 13  нет в базе данных
Трек 14  нет в базе данных
Трек 15  нет в базе данных
Трек 16  нет в базе данных
Трек 17  нет в базе данных
Трек 18  нет в базе данных
Трек 19  нет в базе данных
Трек 20  нет в базе данных
Трек 21  нет в базе данных
Трек 22  нет в базе данных
Трек 23  нет в базе данных
Трек 24  нет в базе данных
Трек 25  нет в базе данных
Трек 26  нет в базе данных
Трек 27  нет в базе данных
Трек 28  нет в базе данных
Трек 29  нет в базе данных
Трек 30  нет в базе данных
 
Ни одного трека нет в базе AccurateRip

Конец отчёта
Релиз: pic


Страница 1 из 1

new_topic  reply_topic

Текущее время: 28-Ноя 06:04
Часовой пояс: GMT + 4

m Сделано с любовью PR-CY.ru Каталог webplus.info