Вход на сайт

Имя:
Пароль:

· Забыли пароль?
logo
Портал Форум
Регистрация Вход


new_topic  reply_topic

  (Pop) Союз 16, non-stop - 1995, FLAC (image + .cue)

pic
Год выпуска: 1995
Страна: Россия
Жанр: Pop
Номер #: SZCD 0470-95 (Студия "СОЮЗ")
Продолжительность: 1:08:37

Тип издания: сборник
Аудио кодек: FLAC
Тип рипа: (image + .cue)
Битрейт аудио: lossless

Треклист:
  1. Филипп Киркоров - Милая
  2. Александр Буйнов - Падают листья
  3. Лариса Долина - До свидания
  4. Нэнси - Дым сигарет с ментолом
  5. Александр Солодуха - Здравствуй, чужая милая
  6. Наталья Сенчукова - Не плачьте, девочки
  7. Диана - Не говори
  8. Дадуда - Даду внедрёж
  9. Юла и Джимми Джи - Рейвтайм
  10. МГК - Тайна
  11. Владимир Бажиновский - Ночь
  12. Павел Кашин - Русская песня
  13. Линда - Мало огня
  14. Валерий Меладзе - Так и скажи
  15. Кристина Орбакайте - Пароходик надежды
  16. Нэнси - Чистый лист
  17. Каролина - Мама, всё о'кей
  18. Евгений Кемеровский - Волга-матушка
  19. Божья Коровка - Любовь прошла
  20. Ирина Салтыкова - Серые глаза
  21. Виктор Чайка - Куда ты денешься
  22. Светлана Лазарева - Лавочка
  23. Золотое Кольцо - И льётся песня
  24. Алла Пугачёва - Мэри

Код:

Exact Audio Copy V0.99 prebeta 5 from 4. May 2009

Отчёт EAC об извлечении, выполненном 8. сентября 2011, 22:02

Various / Союз-16

Дисковод: TSSTcorpCDDVDW SH-S223B   Adapter: 2  ID: 0

Режим чтения                 : Достоверность
Использование точного потока : Да
Отключение кэша аудио        : Да
Использование указателей C2  : Нет

Коррекция смещения при чтении                     : 6
Способность читать области Lead-in и Lead-out     : Нет
Заполнение пропущенных сэмплов тишиной            : Да
Удаление блоков с тишиной в начале и конце        : Нет
При вычислениях CRC использовались нулевые сэмплы : Да
Интерфейс                                         : Встроенный Win32-интерфейс для Win NT/2000

Выходной формат : Внутренние WAV-операции
Формат сэмплов  : 44.100 Гц; 16 бит; стерео

TOC извлечённого CD

     Трек |   Старт  | Длительность | Начальный сектор | Конечный сектор
    ---------------------------------------------------------------------
       1  |  0:00.10 |    2:30.42   |          10      |      11301     
       2  |  2:30.52 |    3:09.35   |       11302      |      25511     
       3  |  5:40.12 |    3:10.50   |       25512      |      39811     
       4  |  8:50.62 |    3:48.00   |       39812      |      56911     
       5  | 12:38.62 |    1:55.50   |       56912      |      65586     
       6  | 14:34.37 |    2:13.43   |       65587      |      75604     
       7  | 16:48.05 |    2:29.70   |       75605      |      86849     
       8  | 19:18.00 |    3:10.02   |       86850      |     101101     
       9  | 22:28.02 |    2:34.43   |      101102      |     112694     
      10  | 25:02.45 |    2:52.27   |      112695      |     125621     
      11  | 27:54.72 |    2:22.35   |      125622      |     136306     
      12  | 30:17.32 |    3:44.38   |      136307      |     153144     
      13  | 34:01.70 |    2:41.17   |      153145      |     165236     
      14  | 36:43.12 |    2:47.55   |      165237      |     177816     
      15  | 39:30.67 |    2:44.53   |      177817      |     190169     
      16  | 42:15.45 |    3:53.55   |      190170      |     207699     
      17  | 46:09.25 |    1:41.67   |      207700      |     215341     
      18  | 47:51.17 |    2:22.08   |      215342      |     225999     
      19  | 50:13.25 |    3:37.00   |      226000      |     242274     
      20  | 53:50.25 |    1:50.17   |      242275      |     250541     
      21  | 55:40.42 |    2:58.60   |      250542      |     263951     
      22  | 58:39.27 |    2:14.23   |      263952      |     274024     
      23  | 60:53.50 |    2:39.15   |      274025      |     285964     
      24  | 63:32.65 |    5:04.55   |      285965      |     308819     

Характеристики диапазона извлечения и сообщения об ошибках

Выбранный диапазон

     Имя файла M:\Сборники\Сборники СОЮЗ\Союз-16 (1995) lossless, non-stop\Союз-16.wav

     Пиковый уровень 89.1 %
     Качество диапазона 99.9 %
     CRC теста 5910D5D9
     CRC копии 5910D5D9
     Копирование... OK

Ошибок не произошло

 
AccurateRip: сводка
 
Трек  1  нет в базе данных
Трек  2  нет в базе данных
Трек  3  нет в базе данных
Трек  4  нет в базе данных
Трек  5  нет в базе данных
Трек  6  нет в базе данных
Трек  7  нет в базе данных
Трек  8  нет в базе данных
Трек  9  нет в базе данных
Трек 10  нет в базе данных
Трек 11  нет в базе данных
Трек 12  нет в базе данных
Трек 13  нет в базе данных
Трек 14  нет в базе данных
Трек 15  нет в базе данных
Трек 16  нет в базе данных
Трек 17  нет в базе данных
Трек 18  нет в базе данных
Трек 19  нет в базе данных
Трек 20  нет в базе данных
Трек 21  нет в базе данных
Трек 22  нет в базе данных
Трек 23  нет в базе данных
Трек 24  нет в базе данных
 
Ни одного трека нет в базе AccurateRip

Конец отчёта
Релиз: pic


Страница 1 из 1

new_topic  reply_topic

Текущее время: 24-Ноя 13:30
Часовой пояс: GMT + 4

m Сделано с любовью PR-CY.ru Каталог webplus.info