Вход на сайт

Имя:
Пароль:

· Забыли пароль?
logo
Портал Форум
Регистрация Вход


new_topic  reply_topic

  (Pop) Союз 34, non-stop - 2004, FLAC (image + .cue)

pic
Год выпуска: 2004
Страна: Россия
Жанр: Pop
Номер #: SZCD 2414-04 (Студия "СОЮЗ")
Продолжительность: 1:15:33

Тип издания: сборник
Аудио кодек: FLAC
Тип рипа: (image + .cue)
Битрейт аудио: lossless

Треклист:
  1. Верка Сердючка - Мы фестивалим
  2. Андрей Губин - Солнышко
  3. Валерия - Радуга-дуга
  4. Звери - Южная ночь
  5. Пропаганда - Кванто-Коста
  6. Валерий Меладзе и ВИА Гра - Притяженья больше нет
  7. Катя Лель - Стоять бояться
  8. DJ Грув - Встреча (из к/ф "Цыган")
  9. Светлана Владимирская - Пусть длится ночь
  10. "Дюна" и Наталья Сенчукова - Милый мой ботаник
  11. Лариса Долина - А ты не понял
  12. Авраам Руссо - Знаю
  13. Кристина Орбакайте - Перелетная птица
  14. Обратите внимание - Просто это...:))
  15. Наталья Ветлицкая - Изучай меня
  16. Корни - Ты узнаешь ее
  17. Ольга Орлова - Выше неба
  18. Премьер-Министр - Наташка (remix)
  19. Краски - Весна
  20. Алексин и "Спам" - Красивая (remake)
  21. Любовные истории - Путь домой
  22. Иракли - Лондон-Париж
  23. Ульяна Каракоз - Не долюбили
  24. Ляпис Трубецкой - Почтальоны / Ten o'clock postman
  25. Саша Project - Белое платье
  26. Непара - Бог тебя выдумал
  27. Гости из будущего - Грустные сказки
  28. Александр Васильев - Романс

Код:

Exact Audio Copy V0.99 prebeta 5 from 4. May 2009

Отчёт EAC об извлечении, выполненном 29. января 2012, 18:03

Various / Союз-34

Дисковод: TSSTcorpCDDVDW SH-S223B   Adapter: 2  ID: 0

Режим чтения                 : Достоверность
Использование точного потока : Да
Отключение кэша аудио        : Да
Использование указателей C2  : Нет

Коррекция смещения при чтении                     : 6
Способность читать области Lead-in и Lead-out     : Нет
Заполнение пропущенных сэмплов тишиной            : Да
Удаление блоков с тишиной в начале и конце        : Нет
При вычислениях CRC использовались нулевые сэмплы : Да
Интерфейс                                         : Встроенный Win32-интерфейс для Win NT/2000

Выходной формат : Внутренние WAV-операции
Формат сэмплов  : 44.100 Гц; 16 бит; стерео

TOC извлечённого CD

     Трек |   Старт  | Длительность | Начальный сектор | Конечный сектор
    ---------------------------------------------------------------------
       1  |  0:00.00 |    3:05.31   |           0      |      13905     
       2  |  3:05.31 |    2:44.63   |       13906      |      26268     
       3  |  5:50.19 |    3:16.18   |       26269      |      40986     
       4  |  9:06.37 |    2:39.36   |       40987      |      52947     
       5  | 11:45.73 |    2:53.19   |       52948      |      65941     
       6  | 14:39.17 |    2:13.74   |       65942      |      75990     
       7  | 16:53.16 |    2:10.70   |       75991      |      85810     
       8  | 19:04.11 |    2:25.00   |       85811      |      96685     
       9  | 21:29.11 |    3:05.69   |       96686      |     110629     
      10  | 24:35.05 |    2:34.46   |      110630      |     122225     
      11  | 27:09.51 |    2:20.45   |      122226      |     132770     
      12  | 29:30.21 |    3:05.60   |      132771      |     146705     
      13  | 32:36.06 |    2:33.54   |      146706      |     158234     
      14  | 35:09.60 |    2:46.70   |      158235      |     170754     
      15  | 37:56.55 |    2:20.03   |      170755      |     181257     
      16  | 40:16.58 |    4:23.07   |      181258      |     200989     
      17  | 44:39.65 |    2:10.59   |      200990      |     210798     
      18  | 46:50.49 |    1:58.34   |      210799      |     219682     
      19  | 48:49.08 |    2:35.43   |      219683      |     231350     
      20  | 51:24.51 |    2:59.15   |      231351      |     244790     
      21  | 54:23.66 |    2:16.52   |      244791      |     255042     
      22  | 56:40.43 |    2:18.60   |      255043      |     265452     
      23  | 58:59.28 |    2:44.08   |      265453      |     277760     
      24  | 61:43.36 |    2:38.00   |      277761      |     289610     
      25  | 64:21.36 |    2:21.52   |      289611      |     300237     
      26  | 66:43.13 |    2:53.45   |      300238      |     313257     
      27  | 69:36.58 |    3:22.68   |      313258      |     328475     
      28  | 72:59.51 |    2:33.68   |      328476      |     340018     

Характеристики диапазона извлечения и сообщения об ошибках

Выбранный диапазон

     Имя файла M:\Сборники\Сборники СОЮЗ\Союз-34 (2004) lossless, non-stop\Союз-34.wav

     Пиковый уровень 98.9 %
     Качество диапазона 100.0 %
     CRC теста 97B66647
     CRC копии 97B66647
     Копирование... OK

Ошибок не произошло

 
AccurateRip: сводка
 
Трек  1  точное извлечение (доверие 1)  [2202D4FC]
Трек  2  точное извлечение (доверие 1)  [A5C5E8B1]
Трек  3  точное извлечение (доверие 1)  [7AC565FE]
Трек  4  точное извлечение (доверие 1)  [9CB1269D]
Трек  5  точное извлечение (доверие 1)  [E269D68B]
Трек  6  точное извлечение (доверие 1)  [BF7B786C]
Трек  7  точное извлечение (доверие 1)  [BFF710C0]
Трек  8  точное извлечение (доверие 1)  [82F4D913]
Трек  9  точное извлечение (доверие 1)  [E170CA46]
Трек 10  точное извлечение (доверие 1)  [39FC7561]
Трек 11  точное извлечение (доверие 1)  [7C434699]
Трек 12  точное извлечение (доверие 1)  [D8A44251]
Трек 13  точное извлечение (доверие 1)  [6D1A75BD]
Трек 14  точное извлечение (доверие 1)  [080B32B7]
Трек 15  точное извлечение (доверие 1)  [CF822358]
Трек 16  точное извлечение (доверие 1)  [556F53AB]
Трек 17  точное извлечение (доверие 1)  [A43742F3]
Трек 18  точное извлечение (доверие 1)  [920E59C8]
Трек 19  точное извлечение (доверие 1)  [D80A2362]
Трек 20  точное извлечение (доверие 1)  [1FD62CBF]
Трек 21  точное извлечение (доверие 1)  [681373F6]
Трек 22  точное извлечение (доверие 1)  [E9C4FF7E]
Трек 23  точное извлечение (доверие 1)  [8570C9A3]
Трек 24  точное извлечение (доверие 1)  [ED1162EC]
Трек 25  точное извлечение (доверие 1)  [74C3A5CA]
Трек 26  точное извлечение (доверие 1)  [CBFBF212]
Трек 27  точное извлечение (доверие 1)  [41B6761E]
Трек 28  точное извлечение (доверие 1)  [6EEB4FD4]
 
Все треки извлечены точно

Конец отчёта
Релиз: pic


Страница 1 из 1

new_topic  reply_topic

Текущее время: 04-Дек 15:36
Часовой пояс: GMT + 4

m Сделано с любовью PR-CY.ru Каталог webplus.info