Вход на сайт

Имя:
Пароль:

· Забыли пароль?
logo
Портал Форум
Регистрация Вход


new_topic  reply_topic

  (Pop) Союз 41, non-stop - 2007, FLAC (image + .cue)

pic
Год выпуска: 2007
Страна: Россия
Жанр: Pop
Номер #: SZCD 5164-07 (Студия "СОЮЗ")
Продолжительность: 1:17:59

Тип издания: сборник
Аудио кодек: FLAC
Тип рипа: (image + .cue)
Битрейт аудио: lossless

Треклист:
  1. Стоматолог и Фисун & Роман Трахтенберг - Собчак
  2. Фабрика - Белым, белым…
  3. Uma2rман - Папины дочки
  4. Жанна Фриске - Я была
  5. Андрей Губин - Лена
  6. Группировка Ленинград - Итд
  7. Потап и Настя Каменских - Крепкие орешки
  8. Всеволод Соколовский - Ближе
  9. Maksим - Ветром стать
  10. Банд'Эрос - Про красивую жизнь
  11. Женя Отрадная - Уходи
  12. Дмитрий Колдун - Я для тебя
  13. Сергей Трофимов - Первая любовь
  14. ВИА Гра - Поцелуи
  15. Звери - Брюнетки и блондинки
  16. DJ Slon & Ангел-А - Мальчик Сереженька
  17. Стас Михайлов - Мама
  18. Любэ - Если…
  19. Надежда Кадышева и Золотое кольцо - Снег летит
  20. Сухарики - Барсетка
  21. Сергей Зверев, Кристина Свешникова - Милый
  22. Мумий тролль - Бермуды
  23. Hotsky - Твое тепло
  24. Валерия - Разрушить любовь
  25. Арина и Размер_project - Я и ты
  26. Джанго и Екатерина Гусева - Возвращайся

Код:

Exact Audio Copy V0.99 prebeta 5 from 4. May 2009

Отчёт EAC об извлечении, выполненном 29. января 2012, 20:39

Various / Союз-41

Дисковод: TSSTcorpCDDVDW SH-S223B   Adapter: 2  ID: 0

Режим чтения                 : Достоверность
Использование точного потока : Да
Отключение кэша аудио        : Да
Использование указателей C2  : Нет

Коррекция смещения при чтении                     : 6
Способность читать области Lead-in и Lead-out     : Нет
Заполнение пропущенных сэмплов тишиной            : Да
Удаление блоков с тишиной в начале и конце        : Нет
При вычислениях CRC использовались нулевые сэмплы : Да
Интерфейс                                         : Встроенный Win32-интерфейс для Win NT/2000

Выходной формат : Внутренние WAV-операции
Формат сэмплов  : 44.100 Гц; 16 бит; стерео

TOC извлечённого CD

     Трек |   Старт  | Длительность | Начальный сектор | Конечный сектор
    ---------------------------------------------------------------------
       1  |  0:00.00 |    2:47.65   |           0      |      12589     
       2  |  2:47.65 |    2:51.30   |       12590      |      25444     
       3  |  5:39.20 |    2:55.15   |       25445      |      38584     
       4  |  8:34.35 |    2:20.24   |       38585      |      49108     
       5  | 10:54.59 |    2:54.69   |       49109      |      62227     
       6  | 13:49.53 |    2:47.33   |       62228      |      74785     
       7  | 16:37.11 |    3:26.01   |       74786      |      90236     
       8  | 20:03.12 |    3:17.12   |       90237      |     105023     
       9  | 23:20.24 |    3:09.34   |      105024      |     119232     
      10  | 26:29.58 |    3:37.46   |      119233      |     135553     
      11  | 30:07.29 |    3:21.24   |      135554      |     150652     
      12  | 33:28.53 |    3:21.33   |      150653      |     165760     
      13  | 36:50.11 |    2:57.32   |      165761      |     179067     
      14  | 39:47.43 |    3:03.20   |      179068      |     192812     
      15  | 42:50.63 |    2:12.26   |      192813      |     202738     
      16  | 45:03.14 |    2:44.57   |      202739      |     215095     
      17  | 47:47.71 |    3:21.27   |      215096      |     230197     
      18  | 51:09.23 |    1:58.61   |      230198      |     239108     
      19  | 53:08.09 |    2:58.38   |      239109      |     252496     
      20  | 56:06.47 |    2:37.16   |      252497      |     264287     
      21  | 58:43.63 |    2:58.32   |      264288      |     277669     
      22  | 61:42.20 |    3:26.69   |      277670      |     293188     
      23  | 65:09.14 |    3:14.32   |      293189      |     307770     
      24  | 68:23.46 |    2:36.00   |      307771      |     319470     
      25  | 70:59.46 |    3:21.34   |      319471      |     334579     
      26  | 74:21.05 |    3:38.49   |      334580      |     350978     

Характеристики диапазона извлечения и сообщения об ошибках

Выбранный диапазон

     Имя файла M:\Сборники\Сборники СОЮЗ\Союз-41 (2007) lossless, non-stop\Союз-41.wav

     Пиковый уровень 96.6 %
     Качество диапазона 100.0 %
     CRC теста 9E8863DF
     CRC копии 9E8863DF
     Копирование... OK

Ошибок не произошло

 
AccurateRip: сводка
 
Трек  1  нет в базе данных
Трек  2  нет в базе данных
Трек  3  нет в базе данных
Трек  4  нет в базе данных
Трек  5  нет в базе данных
Трек  6  нет в базе данных
Трек  7  нет в базе данных
Трек  8  нет в базе данных
Трек  9  нет в базе данных
Трек 10  нет в базе данных
Трек 11  нет в базе данных
Трек 12  нет в базе данных
Трек 13  нет в базе данных
Трек 14  нет в базе данных
Трек 15  нет в базе данных
Трек 16  нет в базе данных
Трек 17  нет в базе данных
Трек 18  нет в базе данных
Трек 19  нет в базе данных
Трек 20  нет в базе данных
Трек 21  нет в базе данных
Трек 22  нет в базе данных
Трек 23  нет в базе данных
Трек 24  нет в базе данных
Трек 25  нет в базе данных
Трек 26  нет в базе данных
 
Ни одного трека нет в базе AccurateRip

Конец отчёта
Релиз: pic


Страница 1 из 1

new_topic  reply_topic

Текущее время: 04-Дек 14:38
Часовой пояс: GMT + 4

m Сделано с любовью PR-CY.ru Каталог webplus.info