Вход на сайт

Имя:
Пароль:

· Забыли пароль?
logo
Портал Форум
Регистрация Вход


new_topic  reply_topic

  (Pop) Союз 19, non-stop - 1997, FLAC (image + .cue)

pic
Год выпуска: 1997
Страна: Россия
Жанр: Pop
Номер #: SZCD0619-97 (Студия "СОЮЗ")
Продолжительность: 1:01:08

Тип издания: сборник
Аудио кодек: FLAC
Тип рипа: (image + .cue)
Битрейт аудио: lossless

Треклист:
  1. Восток - До встречи
  2. Алена Апина - Электричка
  3. Профессор Лебединский - Я убью тебя, лодочник
  4. Рок-острова - Ничего не говори
  5. Ника - Бумажные цветы
  6. Светлана Рерих - Аленький цветочек
  7. Владимир Пресняков - Обмани меня
  8. Николай Трубач - Пять минут
  9. Алиса Мон - Алмаз
  10. М.Б. - Аэропланы
  11. Азиза - Все или ничего
  12. Александр Иванов - Боже, какой пустяк
  13. Владимир Пресняков - Черное море
  14. 3 In A House - Борис Ельцин
  15. Анжелика Варум - Зимняя вишня
  16. Вячеслав Быков - Любимая моя
  17. Дюна - Алка-фиалка
  18. Александр Айвазов - Время-река
  19. Mr. Credo - HSH Bola
  20. Президент и Амазонка - Жу-жу
  21. Татьяна Овсиенко - За розовым морем
  22. Виктор Королев - Три недели
  23. Ляпис-Трубецкой - Ау-ау
  24. Борис Гребенщиков - Темная ночь

Код:

Exact Audio Copy V0.99 prebeta 5 from 4. May 2009

Отчёт EAC об извлечении, выполненном 8. сентября 2011, 23:23

Various / Союз-19

Дисковод: TSSTcorpCDDVDW SH-S223B   Adapter: 2  ID: 0

Режим чтения                 : Достоверность
Использование точного потока : Да
Отключение кэша аудио        : Да
Использование указателей C2  : Нет

Коррекция смещения при чтении                     : 6
Способность читать области Lead-in и Lead-out     : Нет
Заполнение пропущенных сэмплов тишиной            : Да
Удаление блоков с тишиной в начале и конце        : Нет
При вычислениях CRC использовались нулевые сэмплы : Да
Интерфейс                                         : Встроенный Win32-интерфейс для Win NT/2000

Выходной формат : Внутренние WAV-операции
Формат сэмплов  : 44.100 Гц; 16 бит; стерео

TOC извлечённого CD

     Трек |   Старт  | Длительность | Начальный сектор | Конечный сектор
    ---------------------------------------------------------------------
       1  |  0:00.10 |    2:01.72   |          10      |       9156     
       2  |  2:02.07 |    2:43.53   |        9157      |      21434     
       3  |  4:45.60 |    2:25.10   |       21435      |      32319     
       4  |  7:10.70 |    2:18.37   |       32320      |      42706     
       5  |  9:29.32 |    2:16.20   |       42707      |      52926     
       6  | 11:45.52 |    2:29.58   |       52927      |      64159     
       7  | 14:15.35 |    2:33.12   |       64160      |      75646     
       8  | 16:48.47 |    2:33.58   |       75647      |      87179     
       9  | 19:22.30 |    2:20.47   |       87180      |      97726     
      10  | 21:43.02 |    2:12.35   |       97727      |     107661     
      11  | 23:55.37 |    2:19.43   |      107662      |     118129     
      12  | 26:15.05 |    3:29.40   |      118130      |     133844     
      13  | 29:44.45 |    2:36.67   |      133845      |     145611     
      14  | 32:21.37 |    2:39.53   |      145612      |     157589     
      15  | 35:01.15 |    2:49.25   |      157590      |     170289     
      16  | 37:50.40 |    2:30.40   |      170290      |     181579     
      17  | 40:21.05 |    2:28.10   |      181580      |     192689     
      18  | 42:49.15 |    2:14.35   |      192690      |     202774     
      19  | 45:03.50 |    2:28.35   |      202775      |     213909     
      20  | 47:32.10 |    2:45.45   |      213910      |     226329     
      21  | 50:17.55 |    3:07.20   |      226330      |     240374     
      22  | 53:25.00 |    2:42.02   |      240375      |     252526     
      23  | 56:07.02 |    2:20.18   |      252527      |     263044     
      24  | 58:27.20 |    2:41.07   |      263045      |     275126     

Характеристики диапазона извлечения и сообщения об ошибках

Выбранный диапазон

     Имя файла M:\Сборники\Сборники СОЮЗ\Союз-19 (1997) lossless, non-stop\Союз-19.wav

     Пиковый уровень 89.1 %
     Качество диапазона 100.0 %
     CRC теста 799BEFBF
     CRC копии 799BEFBF
     Копирование... OK

Ошибок не произошло

 
AccurateRip: сводка
 
Трек  1  нет в базе данных
Трек  2  нет в базе данных
Трек  3  нет в базе данных
Трек  4  нет в базе данных
Трек  5  нет в базе данных
Трек  6  нет в базе данных
Трек  7  нет в базе данных
Трек  8  нет в базе данных
Трек  9  нет в базе данных
Трек 10  нет в базе данных
Трек 11  нет в базе данных
Трек 12  нет в базе данных
Трек 13  нет в базе данных
Трек 14  нет в базе данных
Трек 15  нет в базе данных
Трек 16  нет в базе данных
Трек 17  нет в базе данных
Трек 18  нет в базе данных
Трек 19  нет в базе данных
Трек 20  нет в базе данных
Трек 21  нет в базе данных
Трек 22  нет в базе данных
Трек 23  нет в базе данных
Трек 24  нет в базе данных
 
Ни одного трека нет в базе AccurateRip

Конец отчёта
Релиз: pic


Здравствуйте! А можно ли получить ссылку для скачивания и в обмен на что?

Страница 1 из 1

new_topic  reply_topic

Текущее время: 24-Ноя 14:02
Часовой пояс: GMT + 4

m Сделано с любовью PR-CY.ru Каталог webplus.info