Вход на сайт

Имя:
Пароль:

· Забыли пароль?
logo
Портал Форум
Регистрация Вход


new_topic  reply_topic

  (Pop) Союз 50, non-stop - 2012, FLAC (image + .cue)

pic
Год выпуска: 2012
Страна: Россия
Производитель: Литва
Жанр: Pop
Номер #: RU-1479 (PRIORO Įrašų Grupė) официальное балтийское издание
Продолжительность: 1:15:59

Тип издания: сборник
Аудио кодек: FLAC
Тип рипа: (image + .cue)
Битрейт аудио: lossless

  1. Дискотека Авария - Ноги
  2. Вера Брежнева - Ищу тебя
  3. Ёлка - Около тебя
  4. Александр Буйнов - Две жизни
  5. Юлия Савичева - Юлия
  6. ВИА ГРА - Алло, мам!
  7. Филипп Киркоров - Мне не жаль
  8. ФАБРИКА - Фильмы о любви
  9. Ева Польна - Я тебя тоже нет (Je T'aime)
  10. Сергей Жуков и Opium Project - Я буду с тобой
  11. Стелла Джанни - Небо
  12. Кристина Орбакайте - Птица-Обида
  13. Полина Гагарина - Спектакль окончен
  14. Couple - Дым
  15. Любовь Успенская - Сирень
  16. Таисия Повалий - Я помолюсь за тебя
  17. Валентин Стрыкало - Рустем
  18. Виктор Рыбин & Наталья Сенчукова - Для тебя
  19. Чи-Ли и Гоша Куценко - Хочу побить посуду
  20. ЛЮБЭ feat. КОРНИ feat. In2Natiоn - Просто любовь (OST «Август. Восьмого»)
  21. Марина Журавлёва - Едет к вам звезда
  22. Анита Цой - Зима-лето
  23. DJ Smash feat. Винтаж - Москва
  24. Кристина Збигневская - Танцуй со мной
  25. DJ Sandro Escobar & Рэпер Сява - Хаваю
  26. Александр Яковлев и Татьяна Овсиенко - Далеко

Код:

Exact Audio Copy V0.99 prebeta 5 from 4. May 2009

Отчёт EAC об извлечении, выполненном 30. июня 2012, 0:06

Various / Союз-50

Дисковод: TSSTcorpCDDVDW SH-S223B   Adapter: 2  ID: 0

Режим чтения                 : Достоверность
Использование точного потока : Да
Отключение кэша аудио        : Да
Использование указателей C2  : Нет

Коррекция смещения при чтении                     : 6
Способность читать области Lead-in и Lead-out     : Нет
Заполнение пропущенных сэмплов тишиной            : Да
Удаление блоков с тишиной в начале и конце        : Нет
При вычислениях CRC использовались нулевые сэмплы : Да
Интерфейс                                         : Встроенный Win32-интерфейс для Win NT/2000

Выходной формат : Внутренние WAV-операции
Формат сэмплов  : 44.100 Гц; 16 бит; стерео

TOC извлечённого CD

     Трек |   Старт  | Длительность | Начальный сектор | Конечный сектор
    ---------------------------------------------------------------------
       1  |  0:00.00 |    3:32.07   |           0      |      15906     
       2  |  3:32.07 |    3:06.72   |       15907      |      29928     
       3  |  6:39.04 |    2:30.31   |       29929      |      41209     
       4  |  9:09.35 |    3:21.69   |       41210      |      56353     
       5  | 12:31.29 |    3:02.28   |       56354      |      70031     
       6  | 15:33.57 |    2:32.61   |       70032      |      81492     
       7  | 18:06.43 |    2:49.48   |       81493      |      94215     
       8  | 20:56.16 |    2:17.67   |       94216      |     104557     
       9  | 23:14.08 |    2:07.46   |      104558      |     114128     
      10  | 25:21.54 |    2:50.17   |      114129      |     126895     
      11  | 28:11.71 |    3:11.60   |      126896      |     141280     
      12  | 31:23.56 |    3:07.60   |      141281      |     155365     
      13  | 34:31.41 |    2:54.33   |      155366      |     168448     
      14  | 37:25.74 |    2:38.43   |      168449      |     180341     
      15  | 40:04.42 |    3:18.12   |      180342      |     195203     
      16  | 43:22.54 |    3:00.73   |      195204      |     208776     
      17  | 46:23.52 |    2:23.71   |      208777      |     219572     
      18  | 48:47.48 |    2:27.28   |      219573      |     230625     
      19  | 51:15.01 |    2:58.07   |      230626      |     243982     
      20  | 54:13.08 |    3:10.09   |      243983      |     258241     
      21  | 57:23.17 |    3:15.54   |      258242      |     272920     
      22  | 60:38.71 |    3:29.23   |      272921      |     288618     
      23  | 64:08.19 |    2:41.44   |      288619      |     300737     
      24  | 66:49.63 |    3:15.71   |      300738      |     315433     
      25  | 70:05.59 |    2:00.00   |      315434      |     324433     
      26  | 72:05.59 |    3:54.04   |      324434      |     341987     

Характеристики диапазона извлечения и сообщения об ошибках

Выбранный диапазон

     Имя файла M:\Сборники\Сборники СОЮЗ\Союз-50 (2012) lossless, non-stop\Союз-50.wav

     Пиковый уровень 96.7 %
     Качество диапазона 100.0 %
     CRC теста 84D91831
     CRC копии 84D91831
     Копирование... OK

Ошибок не произошло

 
AccurateRip: сводка
 
Трек  1  нет в базе данных
Трек  2  нет в базе данных
Трек  3  нет в базе данных
Трек  4  нет в базе данных
Трек  5  нет в базе данных
Трек  6  нет в базе данных
Трек  7  нет в базе данных
Трек  8  нет в базе данных
Трек  9  нет в базе данных
Трек 10  нет в базе данных
Трек 11  нет в базе данных
Трек 12  нет в базе данных
Трек 13  нет в базе данных
Трек 14  нет в базе данных
Трек 15  нет в базе данных
Трек 16  нет в базе данных
Трек 17  нет в базе данных
Трек 18  нет в базе данных
Трек 19  нет в базе данных
Трек 20  нет в базе данных
Трек 21  нет в базе данных
Трек 22  нет в базе данных
Трек 23  нет в базе данных
Трек 24  нет в базе данных
Трек 25  нет в базе данных
Трек 26  нет в базе данных
 
Ни одного трека нет в базе AccurateRip

Конец отчёта
Релиз: pic


Открыто для всех желающих!

Сборник на 2 с плюсом, парочку треков можно послушать. Покупаю до кучи, не люблю когда в коллекции пробелы

В отличии от 48-й части, ни треклист, ни частотный спектр балтийской версии ничем не отличается от российского штампа.

Балтийская версия СОЮЗов, как обычно, выпускается в Jewel Case-е, российская же в диджипаке. Сканы обложек прилагаются. Желающие могут скачать их и отдельно:
http://ifolder.ru/31397687
Оформление, мягко говоря, никакое. Большая цифра 50 и на этом фантазия закончилась, и это на юбилейном-то выпуске, позорище. Ей богу, любой ребенок может скачать готовые графические шаблоны и сделать более красивую обложку.

Страница 1 из 1

new_topic  reply_topic

Текущее время: 28-Ноя 06:47
Часовой пояс: GMT + 4

m Сделано с любовью PR-CY.ru Каталог webplus.info