Вход на сайт

Имя:
Пароль:

· Забыли пароль?
logo
Портал Форум
Регистрация Вход


Статистика раздачи

Размер: 419 MB | Зарегистрирован: 11 лет | Торрент скачан: 0 раз
new_topic  reply_topic

  (Pop) Xtrem - Наша любовь 2002, APE (image + .cue)

pic
Год выпуска: 2002
Страна: Германия
Производитель: Германия
Жанр: Pop
Номер #: нет (Vlad Music)
Продолжительность: ~ 65 минут


Тип издания: альбом
Аудио кодек: APE
Тип рипа: (image + .cue)
Битрейт аудио: lossless


Трэклист:
01. Lead-In
02. Закрывая глаза
03. Вместе с тобой
04. Миг чудес
05. Там, где мы
06. Наша любовь [part1]
07. Может быть
08. Весна
09. Между нами война
10. Мы хотим
11. Xtrem theme
12. Сердце плачет
13. Наша любовь [countinue]
14. Lead-Out
15. Вместе с тобой [trance re-male]

Код:

Exact Audio Copy V0.99 prebeta 5 from 4. May 2009

Отчёт EAC об извлечении, выполненном 7. ноября 2009, 10:42

Xtrem / Наша любовь

Дисковод: PLEXTOR DVDR   PX-800A   Adapter: 0  ID: 0

Режим чтения                 : Достоверность
Использование точного потока : Да
Отключение кэша аудио        : Да
Использование указателей C2  : Нет

Коррекция смещения при чтении                     : 48
Способность читать области Lead-in и Lead-out     : Нет
Заполнение пропущенных сэмплов тишиной            : Да
Удаление блоков с тишиной в начале и конце        : Нет
При вычислениях CRC использовались нулевые сэмплы : Да
Интерфейс                                         : Встроенный Win32-интерфейс для Win NT/2000

Выходной формат : Внутренние WAV-операции
Формат сэмплов  : 44.100 Гц; 16 бит; стерео

TOC извлечённого CD

     Трек |   Старт  | Длительность | Начальный сектор | Конечный сектор
    ---------------------------------------------------------------------
       1  |  0:00.00 |    1:01.34   |           0      |       4608     
       2  |  1:01.34 |    5:02.61   |        4609      |      27319     
       3  |  6:04.20 |    5:17.47   |       27320      |      51141     
       4  | 11:21.67 |    3:59.20   |       51142      |      69086     
       5  | 15:21.12 |    4:27.18   |       69087      |      89129     
       6  | 19:48.30 |    4:08.24   |       89130      |     107753     
       7  | 23:56.54 |    4:16.26   |      107754      |     126979     
       8  | 28:13.05 |    3:54.38   |      126980      |     144567     
       9  | 32:07.43 |    4:16.38   |      144568      |     163805     
      10  | 36:24.06 |    3:48.08   |      163806      |     180913     
      11  | 40:12.14 |    6:04.53   |      180914      |     208266     
      12  | 46:16.67 |    4:37.68   |      208267      |     229109     
      13  | 50:54.60 |    4:56.47   |      229110      |     251356     
      14  | 55:51.32 |    3:03.27   |      251357      |     265108     
      15  | 58:54.59 |    5:17.22   |      265109      |     288905     

Характеристики диапазона извлечения и сообщения об ошибках

Выбранный диапазон

     Имя файла C:\Temp\Образы\Xtrem - Наша любовь.wav

     Пиковый уровень 100.0 %
     Качество диапазона 99.9 %
     CRC теста D4C11B71
     CRC копии D4C11B71
     Копирование... OK

Ошибок не произошло

Конец отчёта
Данный материал из частной коллекции пользователя и носит характер объявления. Если вас заинтересовала данная тема, вы можете связаться с автором сообщения и обсудить детали обмена. Для более подробной информации прочтите правила обмена.
Чем то напомнило группу Demo )) Так то неплохая CD...
а неплохой альбомчик ) сегодня послушал
что то даже и диск захотелось
Здесь дествительно нет номерка, единственное что можно добавить: Изготовитель: (Vlad Music)

Страница 1 из 1

new_topic  reply_topic

Текущее время: 04-Дек 21:22
Часовой пояс: GMT + 4

m Сделано с любовью PR-CY.ru Каталог webplus.info