Вход на сайт

Имя:
Пароль:

· Забыли пароль?
logo
Портал Форум
Регистрация Вход


new_topic  reply_topic

  (Eurodance) DJ Hits Of June' 97 CD 1 1997, APE (image + .cue)

pic
Год выпуска: 1997
Производитель: Bulgaria
Жанр: Eurodance
Номер #: 131128-2
Продолжительность: 73:49

Тип издания: сборник
Аудио кодек: APE
Тип рипа: (image + .cue)
Битрейт аудио: lossless

Треклист:

01. Natasha Hagen - You & You
02. New Limited - Lie's
03. Ondina - Into The Night
04. Whigfield - Gimme Gimme
05. Tracy - Push
06. C-Block - So String Out
07. Charlie Dore - Time Goes By
08. Amanda Marshall - Fall From Grace
09. No Mercy - Please Don't Go
10. DJ Bobo - It's My Life
11. Le Click Feat. Robert Haynes & Kayo - Call Me
12. Captain Jack - Together & Forever
13. Scooter - Fire
14. Amen ! UK ! - Passion
15. Sabrina Setlur - Du Liebst Mich Nicht
16. Vertigo - Oxygene
17. Marcel Romanoff - I'd Love You To Want Me
18. Heath Hunter & The Pleasure Company - Walking On Clouds
19. DJ Pierro - Human Under Presure

Код:

Exact Audio Copy V0.99 prebeta 5 from 4. May 2009

Отчёт EAC об извлечении, выполненном 15. октября 2012, 18:22

Various  Artists / DJ  Hits  Of  June' 97

Дисковод: TEAC    CD-540E   Adapter: 0  ID: 1

Режим чтения                 : Достоверность
Использование точного потока : Да
Отключение кэша аудио        : Да
Использование указателей C2  : Нет

Коррекция смещения при чтении                     : -496
Способность читать области Lead-in и Lead-out     : Нет
Заполнение пропущенных сэмплов тишиной            : Да
Удаление блоков с тишиной в начале и конце        : Нет
При вычислениях CRC использовались нулевые сэмплы : Да
Интерфейс                                         : Встроенный Win32-интерфейс для Win NT/2000

Выходной формат          : Monkey's Audio (без потерь)
Выбранный битрейт        : Extra High Lossless Compression
Качество                 : Высокий
Добавление ID3-тэга      : Нет
Утилита сжатия           : C:\Program Files (x86)\Monkey's Audio\MAC.exe
Дополнительные параметры : -w "Artist=%a" -w "Title=%t" -w "Album=%g" -w "Year=%y" -w "Track=%n" -w "Genre=%m" -h %s %d

TOC извлечённого CD

     Трек |   Старт  | Длительность | Начальный сектор | Конечный сектор
    ---------------------------------------------------------------------
       1  |  0:00.00 |    4:49.27   |           0      |      21701     
       2  |  4:49.27 |    4:07.58   |       21702      |      40284     
       3  |  8:57.10 |    5:00.25   |       40285      |      62809     
       4  | 13:57.35 |    4:03.35   |       62810      |      81069     
       5  | 18:00.70 |    3:45.70   |       81070      |      98014     
       6  | 21:46.65 |    3:41.40   |       98015      |     114629     
       7  | 25:28.30 |    3:48.37   |      114630      |     131766     
       8  | 29:16.67 |    3:51.25   |      131767      |     149116     
       9  | 33:08.17 |    4:17.08   |      149117      |     168399     
      10  | 37:25.25 |    3:54.32   |      168400      |     185981     
      11  | 41:19.57 |    3:46.05   |      185982      |     202936     
      12  | 45:05.62 |    3:57.30   |      202937      |     220741     
      13  | 49:03.17 |    3:31.00   |      220742      |     236566     
      14  | 52:34.17 |    3:27.55   |      236567      |     252146     
      15  | 56:01.72 |    3:53.43   |      252147      |     269664     
      16  | 59:55.40 |    3:13.57   |      269665      |     284196     
      17  | 63:09.22 |    3:11.38   |      284197      |     298559     
      18  | 66:20.60 |    3:48.72   |      298560      |     315731     
      19  | 70:09.57 |    3:39.40   |      315732      |     332196     

Характеристики диапазона извлечения и сообщения об ошибках

Выбранный диапазон

     Имя файла D:\Bit Torrent\DJ  Hits\Various  Artists - DJ  Hits  Of  June' 97\Various  Artists - DJ  Hits  Of  June' 97.wav

     Пиковый уровень 100.0 %
     Качество диапазона 100.0 %
     CRC теста 3F2B1259
     CRC копии 3F2B1259
     Копирование... OK

Ошибок не произошло

 
AccurateRip: сводка
 
Трек  1  нет в базе данных
Трек  2  нет в базе данных
Трек  3  нет в базе данных
Трек  4  нет в базе данных
Трек  5  нет в базе данных
Трек  6  нет в базе данных
Трек  7  нет в базе данных
Трек  8  нет в базе данных
Трек  9  нет в базе данных
Трек 10  нет в базе данных
Трек 11  нет в базе данных
Трек 12  нет в базе данных
Трек 13  нет в базе данных
Трек 14  нет в базе данных
Трек 15  нет в базе данных
Трек 16  нет в базе данных
Трек 17  нет в базе данных
Трек 18  нет в базе данных
Трек 19  нет в базе данных
 
Ни одного трека нет в базе AccurateRip

Конец отчёта
Sabrina Setlur - Du liebst mich nicht

Страница 1 из 1

new_topic  reply_topic

Текущее время: 25-Фев 17:10
Часовой пояс: GMT + 4

m Сделано с любовью PR-CY.ru Каталог webplus.info