Вход на сайт

Имя:
Пароль:

· Забыли пароль?
logo
Портал Форум
Регистрация Вход


new_topic  reply_topic

  (Speed Garage) Various - 100% Pure Speed Garage 1998, FLAC (tracks + .cue), lossless

pic
Год выпуска: 1998
Страна: Germany
Производитель: Germany
Жанр: Speed Garage
Номер #: Globe (2) ‎– 876906-2
Тип издания: альбом
Аудио кодек: FLAC
Тип рипа: (tracks + .cue)
Битрейт аудио: lossless

Треклист:

01) Serious Danger – Deeper (7" Edit)
02) Tail Spin – All Massive (Tail Spin Massive Mix)
03) Speedfreakz – Are You Ready
04) Strike – Inspiration (Sugarbabies Dub)
05) Jarvic 7 – Reach Out (AVH Mix)
06) Head First – Dis-Kittkat
07) Curtis B. – Fantasy (Speedy House Mix)
08) Psycho Kids – Stun Shot
09) 8th Wonder – Deeper
10 Kriss Dior – KD:Reconstructed
11) Klub Attaque – Reach 4 Da Speed
12) Culture, The Feat. Francesca – Kiss My Lips (Kiss My Rips Speed Garage Radio Edit)
13) Sharada House Gang – Gypsy Boy (Sol Bros Vocal)


Доп. информация:
CD - UnMixed (немиксованный сборник.)
_______________________________________________
http://www.discogs.com/Various-100-Pure-Speed-Garage/release/890421

Код:

Exact Audio Copy V1.0 beta 3 from 29. August 2011

EAC extraction logfile from 8. February 2012, 7:49

Various / 100% Pure Speed Garage

Used drive  : PLEXTOR CD-R   PX-W1210A   Adapter: 0  ID: 1

Read mode               : Secure
Utilize accurate stream : Yes
Defeat audio cache      : Yes
Make use of C2 pointers : No

Read offset correction                      : 99
Overread into Lead-In and Lead-Out          : No
Fill up missing offset samples with silence : Yes
Delete leading and trailing silent blocks   : No
Null samples used in CRC calculations       : Yes
Used interface                              : Native Win32 interface for Win NT & 2000
Gap handling                                : Appended to previous track

Used output format : Internal WAV Routines
Sample format      : 44.100 Hz; 16 Bit; Stereo

TOC of the extracted CD

     Track |   Start  |  Length  | Start sector | End sector
    ---------------------------------------------------------
        1  |  0:00.00 |  3:58.00 |         0    |    17849   
        2  |  3:58.00 |  7:43.00 |     17850    |    52574   
        3  | 11:41.00 |  6:58.00 |     52575    |    83924   
        4  | 18:39.00 |  6:39.62 |     83925    |   113911   
        5  | 25:18.62 |  7:34.13 |    113912    |   147974   
        6  | 32:53.00 |  4:36.40 |    147975    |   168714   
        7  | 37:29.40 |  4:54.35 |    168715    |   190799   
        8  | 42:24.00 |  6:19.25 |    190800    |   219249   
        9  | 48:43.25 |  3:36.50 |    219250    |   235499   
       10  | 52:20.00 |  4:50.40 |    235500    |   257289   
       11  | 57:10.40 |  8:10.60 |    257290    |   294099   
       12  | 65:21.25 |  3:55.37 |    294100    |   311761   
       13  | 69:16.62 |  8:20.13 |    311762    |   349274   

Track  1

     Filename C:\Users\Z004fm\Desktop\100% Pure Speed Garage\01. Serious Danger - Deeper (7'' Edit).wav

     Pre-gap length  0:00:02.00

     Peak level 100.0 %
     Extraction speed 2.2 X
     Track quality 100.0 %
     Test CRC 365B766F
     Copy CRC 365B766F
     Accurately ripped (confidence 1)  [E3A72DAA]  (AR v2)
     Copy OK

Track  2

     Filename C:\Users\Z004fm\Desktop\100% Pure Speed Garage\02. Tail Spin - All Massive (Tail Spin Massive Mix).wav

     Peak level 100.0 %
     Extraction speed 2.7 X
     Track quality 100.0 %
     Test CRC DD4C38F6
     Copy CRC DD4C38F6
     Accurately ripped (confidence 1)  [ACBA0FC2]  (AR v2)
     Copy OK

Track  3

     Filename C:\Users\Z004fm\Desktop\100% Pure Speed Garage\03. Speedfreakz - Are You Ready.wav

     Peak level 100.0 %
     Extraction speed 2.4 X
     Track quality 99.9 %
     Test CRC E65ACED9
     Copy CRC E65ACED9
     Accurately ripped (confidence 1)  [A43E380C]  (AR v2)
     Copy OK

Track  4

     Filename C:\Users\Z004fm\Desktop\100% Pure Speed Garage\04. Strike - Inspiration (Sugarbabies Dub).wav

     Peak level 100.0 %
     Extraction speed 2.8 X
     Track quality 100.0 %
     Test CRC 427B3084
     Copy CRC 427B3084
     Accurately ripped (confidence 1)  [4F6C1107]  (AR v2)
     Copy OK

Track  5

     Filename C:\Users\Z004fm\Desktop\100% Pure Speed Garage\05. Jarvic 7 - Reach Out (AVH Mix).wav

     Peak level 100.0 %
     Extraction speed 2.6 X
     Track quality 99.9 %
     Test CRC A01AB776
     Copy CRC A01AB776
     Accurately ripped (confidence 1)  [B79777E8]  (AR v2)
     Copy OK

Track  6

     Filename C:\Users\Z004fm\Desktop\100% Pure Speed Garage\06. Head First - Dis-Kittkat.wav

     Peak level 100.0 %
     Extraction speed 2.3 X
     Track quality 99.9 %
     Test CRC E5E70803
     Copy CRC E5E70803
     Accurately ripped (confidence 1)  [B2CD2364]  (AR v2)
     Copy OK

Track  7

     Filename C:\Users\Z004fm\Desktop\100% Pure Speed Garage\07. Curtis B. - Fantasy (Speedy House Mix).wav

     Peak level 100.0 %
     Extraction speed 2.3 X
     Track quality 99.9 %
     Test CRC 7D11FC0B
     Copy CRC 7D11FC0B
     Accurately ripped (confidence 1)  [221C7662]  (AR v2)
     Copy OK

Track  8

     Filename C:\Users\Z004fm\Desktop\100% Pure Speed Garage\08. Psycho Kids - Stun Shot.wav

     Peak level 100.0 %
     Extraction speed 2.7 X
     Track quality 100.0 %
     Test CRC 605599B3
     Copy CRC 605599B3
     Accurately ripped (confidence 1)  [E7F37D51]  (AR v2)
     Copy OK

Track  9

     Filename C:\Users\Z004fm\Desktop\100% Pure Speed Garage\09. 8th Wonder - Deeper.wav

     Peak level 100.0 %
     Extraction speed 2.6 X
     Track quality 100.0 %
     Test CRC D21B1D16
     Copy CRC D21B1D16
     Accurately ripped (confidence 1)  [F59FB899]  (AR v2)
     Copy OK

Track 10

     Filename C:\Users\Z004fm\Desktop\100% Pure Speed Garage\10. Kriss Dior - KD-Reconstructed.wav

     Peak level 100.0 %
     Extraction speed 2.8 X
     Track quality 100.0 %
     Test CRC A1E7E5FF
     Copy CRC A1E7E5FF
     Accurately ripped (confidence 1)  [72F15D03]  (AR v2)
     Copy OK

Track 11

     Filename C:\Users\Z004fm\Desktop\100% Pure Speed Garage\11. Klub Attaque - Reach 4 Da Speed.wav

     Peak level 100.0 %
     Extraction speed 2.9 X
     Track quality 100.0 %
     Test CRC D10EACFB
     Copy CRC D10EACFB
     Accurately ripped (confidence 1)  [2D7F9C99]  (AR v2)
     Copy OK

Track 12

     Filename C:\Users\Z004fm\Desktop\100% Pure Speed Garage\12. The Culture Feat. Francesca - Kiss My Lips (Kiss My Rips Speed Garage Radio Mix).wav

     Peak level 100.0 %
     Extraction speed 2.6 X
     Track quality 100.0 %
     Test CRC 51CDAC71
     Copy CRC 51CDAC71
     Accurately ripped (confidence 1)  [A18CE9FD]  (AR v1)
     Copy OK

Track 13

     Filename C:\Users\Z004fm\Desktop\100% Pure Speed Garage\13. Sharada House Gang - Gipsy Boy (Sol Bros Vocal).wav

     Peak level 100.0 %
     Extraction speed 2.9 X
     Track quality 100.0 %
     Test CRC E3A627CB
     Copy CRC E3A627CB
     Accurately ripped (confidence 1)  [F119FF5E]  (AR v1)
     Copy OK

All tracks accurately ripped

No errors occurred

End of status report

==== Log checksum 80D7839FE4FA1741D8B199D27471B1199B8BFAA5A7163FACC6B876A2A6477BAD ====

Страница 1 из 1

new_topic  reply_topic

Текущее время: 30-Сен 16:10
Часовой пояс: GMT + 4

m Сделано с любовью PR-CY.ru Каталог webplus.info