Вход на сайт

Имя:
Пароль:

· Забыли пароль?
logo
Портал Форум
Регистрация Вход


new_topic  reply_topic

  (Pop Rock) Pur - Hör Gut Zu - 1993, FLAC (image + .cue) lossless

pic
Год выпуска: 1993
Страна: Германия
Производитель: Германия
Жанр: Pop Rock
Номер #: INT 825.355 (Intercord)
Продолжительность: 0:14:14

Тип издания: сингл
Аудио кодек: FLAC
Тип рипа: (image + .cue)
Битрейт аудио: lossless

Треклист:

  1. Hör Gut Zu
  2. Geweint Vor Glück (Live)
  3. Weisst Du Noch (Live)

Код:

Exact Audio Copy V0.99 prebeta 5 from 4. May 2009

Отчёт EAC об извлечении, выполненном 13. февраля 2014, 11:22

Pur / Hor gut zu

Дисковод: TSSTcorpCDDVDW SH-224BB   Adapter: 3  ID: 0

Режим чтения                 : Достоверность
Использование точного потока : Да
Отключение кэша аудио        : Да
Использование указателей C2  : Нет

Коррекция смещения при чтении                     : 6
Способность читать области Lead-in и Lead-out     : Нет
Заполнение пропущенных сэмплов тишиной            : Да
Удаление блоков с тишиной в начале и конце        : Нет
При вычислениях CRC использовались нулевые сэмплы : Да
Интерфейс                                         : Встроенный Win32-интерфейс для Win NT/2000

Выходной формат : Внутренние WAV-операции
Формат сэмплов  : 44.100 Гц; 16 бит; стерео

TOC извлечённого CD

     Трек |   Старт  | Длительность | Начальный сектор | Конечный сектор
    ---------------------------------------------------------------------
       1  |  0:00.00 |    4:23.40   |           0      |      19764     
       2  |  4:23.40 |    4:51.42   |       19765      |      41631     
       3  |  9:15.07 |    4:59.43   |       41632      |      64099     

Характеристики диапазона извлечения и сообщения об ошибках

Выбранный диапазон

     Имя файла M:\Разное\Pur (lossless)\Pur - Hor gut zu (1993)\Pur - Hor gut zu.wav

     Пиковый уровень 100.0 %
     Качество диапазона 100.0 %
     CRC теста 1514E5B5
     CRC копии 1514E5B5
     Копирование... OK

Ошибок не произошло

 
AccurateRip: сводка
 
Трек  1  точное извлечение (доверие 5)  [C7BAD6BF]
Трек  2  точное извлечение (доверие 5)  [2A4AF0C9]
Трек  3  точное извлечение (доверие 3)  [A54D60B3]
 
Все треки извлечены точно

Конец отчёта

Страница 1 из 1

new_topic  reply_topic

Текущее время: 28-Ноя 00:58
Часовой пояс: GMT + 4

m Сделано с любовью PR-CY.ru Каталог webplus.info