Вход на сайт

Имя:
Пароль:

· Забыли пароль?
logo
Портал Форум
Регистрация Вход


new_topic  reply_topic

  (Italo-Disco) Fred Ventura & Paolo Gozzetti - Italoconnection - 2014, FLAC (image + .cue) lossless

pic
Год выпуска: 2014
Страна: Италия
Производитель: США
Жанр: Italo-Disco
Номер #: SSR-00031 (Space Sound Records)
Продолжительность: 1:02:06

Тип контента: альбом
Аудио кодек: FLAC
Тип рипа: (image + .cue)
Битрейт аудио: lossless

Треклист:

  1. Decadence Vs Italoconnection - On And On (Fears Keep On) (Italoconnection Slo-fi Mix)
  2. Iori's Eyes Vs Italoconnection - In Love With Your Worst Side (Italoconnection Dub Mix)
  3. Italoconnection - Never Give Up
  4. Italoconnection - My Rhythm
  5. Italoconnection - Subway Lovers
  6. Alden Tyrell & Fred Ventura - Don't Stop (Italoconnection Mix 2)
  7. Italoconnection Feat. Vik - Sometimes I Wish
  8. Atelier Folie - Leave Me Alone (Italoconnection Mix)
  9. RFL Vs Italoconnection - Close Your Eyes (Italoconnection Instrumental Dub Mix)
  10. Italoconnection - My Rhythm (Paramour DMT Remix)

Код:

Exact Audio Copy V0.99 prebeta 5 from 4. May 2009

Отчёт EAC об извлечении, выполненном 12. февраля 2014, 19:05

Fred Ventura & Paolo Gozzetti / Italoconnection

Дисковод: TSSTcorpCDDVDW SH-S223B   Adapter: 4  ID: 2

Режим чтения                 : Достоверность
Использование точного потока : Да
Отключение кэша аудио        : Да
Использование указателей C2  : Нет

Коррекция смещения при чтении                     : 6
Способность читать области Lead-in и Lead-out     : Нет
Заполнение пропущенных сэмплов тишиной            : Да
Удаление блоков с тишиной в начале и конце        : Нет
При вычислениях CRC использовались нулевые сэмплы : Да
Интерфейс                                         : Встроенный Win32-интерфейс для Win NT/2000

Выходной формат : Внутренние WAV-операции
Формат сэмплов  : 44.100 Гц; 16 бит; стерео

TOC извлечённого CD

     Трек |   Старт  | Длительность | Начальный сектор | Конечный сектор
    ---------------------------------------------------------------------
       1  |  0:00.00 |    6:04.25   |           0      |      27324     
       2  |  6:04.25 |    8:05.01   |       27325      |      63700     
       3  | 14:09.26 |    4:24.48   |       63701      |      83548     
       4  | 18:33.74 |    6:02.03   |       83549      |     110701     
       5  | 24:36.02 |    6:23.70   |      110702      |     139496     
       6  | 30:59.72 |    4:45.32   |      139497      |     160903     
       7  | 35:45.29 |    6:09.48   |      160904      |     188626     
       8  | 41:55.02 |    6:38.34   |      188627      |     218510     
       9  | 48:33.36 |    6:33.45   |      218511      |     248030     
      10  | 55:07.06 |    6:59.51   |      248031      |     279506     

Характеристики диапазона извлечения и сообщения об ошибках

Выбранный диапазон

     Имя файла M:\Italo-Disco\Fred Ventura & Paolo Gozzetti (lossless)\Fred Ventura & Paolo Gozzetti - Italoconnection (2014)\Fred Ventura & Paolo Gozzetti - Italoconnection.wav

     Пиковый уровень 99.9 %
     Качество диапазона 99.9 %
     CRC теста 3CA8E30A
     CRC копии 3CA8E30A
     Копирование... OK

Ошибок не произошло

 
AccurateRip: сводка
 
Трек  1  нет в базе данных
Трек  2  нет в базе данных
Трек  3  нет в базе данных
Трек  4  нет в базе данных
Трек  5  нет в базе данных
Трек  6  нет в базе данных
Трек  7  нет в базе данных
Трек  8  нет в базе данных
Трек  9  нет в базе данных
Трек 10  нет в базе данных
 
Ни одного трека нет в базе AccurateRip

Конец отчёта
Super Album Thanks
HI great album yes, the italo sound back in action
very nice album
Спасибо тебе за этот шедевр, очень нравится

Страница 1 из 1

new_topic  reply_topic

Текущее время: 04-Окт 10:09
Часовой пояс: GMT + 4

m Сделано с любовью PR-CY.ru Каталог webplus.info