Вход на сайт

Имя:
Пароль:

· Забыли пароль?
logo
Портал Форум
Регистрация Вход


new_topic  reply_topic

  (Pop) Союз 48 + Союз Дебют, non-stop - 2011, FLAC (image + .cue)

pic
Год выпуска: 2011
Страна: Россия
Производитель: Балтия
Жанр: Pop
Номер #: RU-1450 (PRIORO Įrašų Grupė) официальное балтийское издание
Продолжительность: 1:11:42 + 0:57:47

Тип издания: сборник
Аудио кодек: FLAC
Тип рипа: (image + .cue)
Битрейт аудио: lossless

CD1 - Союз 48

  1. Денис Майданов - Ничего не жаль
  2. Потап и Настя - Чумачечая весна
  3. Виктория Дайненко - Сотри его из memory
  4. Чай вдвоем - Господин президент
  5. Дискотека Авария - Недетское время
  6. Алсу - Облако волос
  7. David & Анастасия Приходько - Между нами небо
  8. Зара - Амели
  9. Валентин Стрыкало - Кайен
  10. Джиган & Юлия Савичева - Отпусти
  11. Валерия - Жди меня
  12. Virus - Я убегаю
  13. Корни - Это не спам
  14. Согдиана - Только не молчи
  15. Ундервуд - Йога и алкоголь
  16. Время и стекло - Скачать бесплатно
  17. DJ Карась - Позвони мне позвони
  18. Чехов Паша - Лена Смирнова
  19. Валенсия - Люблю тебя
  20. Ай-Q - Бесконечно
  21. Пропаганда - Я такая
  22. Марсель - Эта песня для тебя
  23. Венера - Любовный треугольник
  24. Михаил Шифутинский & Комиссарова - Любовь жива


CD2 - Союз Дебютный

  1. Георгий Белов - Эрос
  2. JONI BEK - Песни для любимой
  3. Максим Бурматов - Мимо проходи (remix)
  4. The Stokes - Под куполом небес
  5. Алексей День - Быть с тобой
  6. Крестные братья - Чарли Буба
  7. VERBA - Научись летать
  8. Глебова Елена - Я не та
  9. Павлычева Алиса - Нашу любовь не вернуть
  10. Александр Яковлев - Батя
  11. Снежный август - Метели февраля
  12. Эллина Аристова - Отпусти любя
  13. Катя Савельева - Два одиночества
  14. Новый романтик - Сезон дождей
  15. Эврика - Уснули голубые

Код:

Exact Audio Copy V0.99 prebeta 5 from 4. May 2009

Отчёт EAC об извлечении, выполненном 7. сентября 2011, 21:01

Various / Союз-48

Дисковод: TSSTcorpCDDVDW SH-S223B   Adapter: 2  ID: 0

Режим чтения                 : Достоверность
Использование точного потока : Да
Отключение кэша аудио        : Да
Использование указателей C2  : Нет

Коррекция смещения при чтении                     : 6
Способность читать области Lead-in и Lead-out     : Нет
Заполнение пропущенных сэмплов тишиной            : Да
Удаление блоков с тишиной в начале и конце        : Нет
При вычислениях CRC использовались нулевые сэмплы : Да
Интерфейс                                         : Встроенный Win32-интерфейс для Win NT/2000

Выходной формат : Внутренние WAV-операции
Формат сэмплов  : 44.100 Гц; 16 бит; стерео

TOC извлечённого CD

     Трек |   Старт  | Длительность | Начальный сектор | Конечный сектор
    ---------------------------------------------------------------------
       1  |  0:00.00 |    3:43.16   |           0      |      16740     
       2  |  3:43.16 |    3:13.06   |       16741      |      31221     
       3  |  6:56.22 |    3:02.49   |       31222      |      44920     
       4  |  9:58.71 |    2:50.39   |       44921      |      57709     
       5  | 12:49.35 |    3:30.06   |       57710      |      73465     
       6  | 16:19.41 |    3:35.08   |       73466      |      89598     
       7  | 19:54.49 |    3:04.04   |       89599      |     103402     
       8  | 22:58.53 |    3:16.17   |      103403      |     118119     
       9  | 26:14.70 |    2:39.41   |      118120      |     130085     
      10  | 28:54.36 |    2:19.68   |      130086      |     140578     
      11  | 31:14.29 |    3:18.66   |      140579      |     155494     
      12  | 34:33.20 |    2:32.44   |      155495      |     166938     
      13  | 37:05.64 |    3:22.70   |      166939      |     182158     
      14  | 40:28.59 |    2:35.43   |      182159      |     193826     
      15  | 43:04.27 |    2:46.20   |      193827      |     206296     
      16  | 45:50.47 |    2:20.14   |      206297      |     216810     
      17  | 48:10.61 |    2:28.34   |      216811      |     227944     
      18  | 50:39.20 |    2:32.43   |      227945      |     239387     
      19  | 53:11.63 |    3:11.19   |      239388      |     253731     
      20  | 56:23.07 |    2:26.23   |      253732      |     264704     
      21  | 58:49.30 |    2:49.10   |      264705      |     277389     
      22  | 61:38.40 |    3:19.25   |      277390      |     292339     
      23  | 64:57.65 |    3:29.30   |      292340      |     308044     
      24  | 68:27.20 |    3:14.55   |      308045      |     322649     

Характеристики диапазона извлечения и сообщения об ошибках

Выбранный диапазон

     Имя файла M:\Сборники\Сборники СОЮЗ\Союз-48 (2011) lossless, non-stop\Союз-48.wav

     Пиковый уровень 98.8 %
     Качество диапазона 100.0 %
     CRC теста 7898D11B
     CRC копии 7898D11B
     Копирование... OK

Ошибок не произошло

 
AccurateRip: сводка
 
Трек  1  нет в базе данных
Трек  2  нет в базе данных
Трек  3  нет в базе данных
Трек  4  нет в базе данных
Трек  5  нет в базе данных
Трек  6  нет в базе данных
Трек  7  нет в базе данных
Трек  8  нет в базе данных
Трек  9  нет в базе данных
Трек 10  нет в базе данных
Трек 11  нет в базе данных
Трек 12  нет в базе данных
Трек 13  нет в базе данных
Трек 14  нет в базе данных
Трек 15  нет в базе данных
Трек 16  нет в базе данных
Трек 17  нет в базе данных
Трек 18  нет в базе данных
Трек 19  нет в базе данных
Трек 20  нет в базе данных
Трек 21  нет в базе данных
Трек 22  нет в базе данных
Трек 23  нет в базе данных
Трек 24  нет в базе данных
 
Ни одного трека нет в базе AccurateRip

Конец отчёта

Код:

Exact Audio Copy V0.99 prebeta 5 from 4. May 2009

Отчёт EAC об извлечении, выполненном 7. сентября 2011, 20:26

Various / Союз Дебют

Дисковод: SlimtypeDVD A  DS8A3S   Adapter: 1  ID: 0

Режим чтения                 : Достоверность
Использование точного потока : Да
Отключение кэша аудио        : Да
Использование указателей C2  : Нет

Коррекция смещения при чтении                     : 6
Способность читать области Lead-in и Lead-out     : Нет
Заполнение пропущенных сэмплов тишиной            : Да
Удаление блоков с тишиной в начале и конце        : Нет
При вычислениях CRC использовались нулевые сэмплы : Да
Интерфейс                                         : Встроенный Win32-интерфейс для Win NT/2000

Выходной формат : Внутренние WAV-операции
Формат сэмплов  : 44.100 Гц; 16 бит; стерео

TOC извлечённого CD

     Трек |   Старт  | Длительность | Начальный сектор | Конечный сектор
    ---------------------------------------------------------------------
       1  |  0:00.00 |    3:36.04   |           0      |      16203     
       2  |  3:36.04 |    2:58.50   |       16204      |      29603     
       3  |  6:34.54 |    3:24.63   |       29604      |      44966     
       4  |  9:59.42 |    3:43.02   |       44967      |      61693     
       5  | 13:42.44 |    3:40.28   |       61694      |      78221     
       6  | 17:22.72 |    3:27.19   |       78222      |      93765     
       7  | 20:50.16 |    3:25.47   |       93766      |     109187     
       8  | 24:15.63 |    3:37.43   |      109188      |     125505     
       9  | 27:53.31 |    3:33.05   |      125506      |     141485     
      10  | 31:26.36 |    4:11.74   |      141486      |     160384     
      11  | 35:38.35 |    4:56.10   |      160385      |     182594     
      12  | 40:34.45 |    4:04.69   |      182595      |     200963     
      13  | 44:39.39 |    3:32.72   |      200964      |     216935     
      14  | 48:12.36 |    5:23.09   |      216936      |     241169     
      15  | 53:35.45 |    4:11.34   |      241170      |     260028     

Характеристики диапазона извлечения и сообщения об ошибках

Выбранный диапазон

     Имя файла M:\Союз Дебют\Союз Дебют.wav

     Пиковый уровень 100.0 %
     Качество диапазона 99.9 %
     CRC теста CA6E0F8F
     CRC копии CA6E0F8F
     Копирование... OK

Ошибок не произошло

 
AccurateRip: сводка
 
Трек  1  нет в базе данных
Трек  2  нет в базе данных
Трек  3  нет в базе данных
Трек  4  нет в базе данных
Трек  5  нет в базе данных
Трек  6  нет в базе данных
Трек  7  нет в базе данных
Трек  8  нет в базе данных
Трек  9  нет в базе данных
Трек 10  нет в базе данных
Трек 11  нет в базе данных
Трек 12  нет в базе данных
Трек 13  нет в базе данных
Трек 14  нет в базе данных
Трек 15  нет в базе данных
 
Ни одного трека нет в базе AccurateRip

Конец отчёта
Релиз: pic


Балтийское издание урезано на 2 трека. Отсутствуют композиции:
  • Ёлка - Прованс
  • Валерий Меладзе - Побудь со мной



Студия СОЮЗ писал(а):

Номерные фирменные сборники «Студии СОЮЗ» самые успешные и продаваемые в России. Они выходят огромными тиражами, что сейчас, в эпоху цифровых технологий, является большой редкостью и, несомненно, предметом гордости компании.

Сегодня «Студия СОЮЗ» совместно с одноимённым продюсерским центром представляет эксклюзивный проект под названием «СОЮЗ Дебют». Это сборник начинающих исполнителей, который будет издаваться на регулярной основе и станет ещё одним брендом, представляющим лицо компании, наряду со сборниками «СОЮЗ», «СОЮЗ Пионерский», «СОЮЗ Gold» и «Танцевальный рай».

Музыка это не только то, что нам строить и жить помогает, но и возможность вернуться в какие-то далекие моменты, когда нам было хорошо. Можно поставить диск студии «СОЮЗ» и подпеть молодым артистам.

Диск Союз – 48 – это уникальная возможность насладиться музыкой отечественной эстрады. В комплект входят 2 CD. На одном уже известные нам и полюбившиеся звезды шоу-бизнеса, такие как Ёлка, Потап и Настя Каменских, Денис Майданов, Дискотека авария, Валентин Стрыкало, Валерия, Virus, Валенсия, Корни, Пропаганда и другие.

А на второй диск вошли артисты пока ещё не известному широкому кругу слушателей, но безусловно их песни должны понравиться. Это Георгий Белов, Алексей День, Александр Яковлев, группа «Снежный август», Эллина Артистова, группа «Эврика».

Если вы ещё до конца не ушли в интернет, и все ещё продолжаете слушать отечественную современную музыку, то в магазинах студии “Союз” они уже появились.

Страница 1 из 1

new_topic  reply_topic

Текущее время: 27-Окт 05:06
Часовой пояс: GMT + 4

m Сделано с любовью PR-CY.ru Каталог webplus.info