Вход на сайт

Имя:
Пароль:

· Забыли пароль?
logo
Портал Форум
Регистрация Вход


new_topic  reply_topic

  (Pop) Союз 25, non-stop - 1999, FLAC (image + .cue)

pic
Год выпуска: 1999
Страна: Россия
Жанр: Pop
Номер #: JRC_00342-99 (J.R.C.) официальное украинское издание
Продолжительность: 1:12:48

Тип издания: сборник
Аудио кодек: FLAC
Тип рипа: (image + .cue)
Битрейт аудио: lossless

Треклист:
  1. Иван Купала - Коляда
  2. Дискотека Авария - Давай, Авария!
  3. Белый орел - На заре
  4. Однажды - Я одна
  5. Demо - 2000 Лет
  6. ИZЮМ - Не долететь
  7. Запрещенные барабанщики - Модная любовь (new version)
  8. Алсу - Иногда
  9. Отпетые мошенники - Люби меня, люби
  10. DJ ZooMeR - Замечательно выходит
  11. Вирус - Ты меня не ищи
  12. Персональный медведь - Ежик
  13. Жуки - Влечение
  14. Линда - Я не могу
  15. Туманный стон - Грустная
  16. Татьяна Буланова - Мало - не много
  17. Чайф - Аргентина - Ямайка 5:0
  18. Леприконсы - Хали-гали, пара трупер
  19. Михей & "Джуманджи" и Инна Стилл - Туда
  20. Александр Иванов - Над колокольнями
  21. Play - Не надо слов
  22. Zdob Si Zdub - Dansuri
  23. Вячеслав Быков - Девочка моя
  24. Андрей Державин - Та, которая уходит в дождь
  25. НВ - Подруга (Любите друг друга)
  26. Мы - Ты такая милая
  27. Лайма Вайкуле - Здравствуй, мой Алюлюм
  28. Алла Пугачева - Доченька моя
  29. Чиж & Co - Еду, еду…

Код:

Exact Audio Copy V0.99 prebeta 5 from 4. May 2009

Отчёт EAC об извлечении, выполненном 8. сентября 2011, 23:10

Various / Союз-25

Дисковод: SlimtypeDVD A  DS8A3S   Adapter: 1  ID: 0

Режим чтения                 : Достоверность
Использование точного потока : Да
Отключение кэша аудио        : Да
Использование указателей C2  : Нет

Коррекция смещения при чтении                     : 6
Способность читать области Lead-in и Lead-out     : Нет
Заполнение пропущенных сэмплов тишиной            : Да
Удаление блоков с тишиной в начале и конце        : Нет
При вычислениях CRC использовались нулевые сэмплы : Да
Интерфейс                                         : Встроенный Win32-интерфейс для Win NT/2000

Выходной формат : Внутренние WAV-операции
Формат сэмплов  : 44.100 Гц; 16 бит; стерео

TOC извлечённого CD

     Трек |   Старт  | Длительность | Начальный сектор | Конечный сектор
    ---------------------------------------------------------------------
       1  |  0:00.10 |    2:52.63   |          10      |      12972     
       2  |  2:52.73 |    2:11.45   |       12973      |      22842     
       3  |  5:04.43 |    2:26.71   |       22843      |      33863     
       4  |  7:31.39 |    2:26.37   |       33864      |      44850     
       5  |  9:58.01 |    2:32.71   |       44851      |      56321     
       6  | 12:30.72 |    2:29.40   |       56322      |      67536     
       7  | 15:00.37 |    2:36.48   |       67537      |      79284     
       8  | 17:37.10 |    2:24.13   |       79285      |      90097     
       9  | 20:01.23 |    1:57.58   |       90098      |      98930     
      10  | 21:59.06 |    2:07.66   |       98931      |     108521     
      11  | 24:06.72 |    2:31.53   |      108522      |     119899     
      12  | 26:38.50 |    2:03.72   |      119900      |     129196     
      13  | 28:42.47 |    2:17.07   |      129197      |     139478     
      14  | 30:59.54 |    3:28.09   |      139479      |     155087     
      15  | 34:27.63 |    2:47.26   |      155088      |     167638     
      16  | 37:15.14 |    2:41.09   |      167639      |     179722     
      17  | 39:56.23 |    2:32.33   |      179723      |     191155     
      18  | 42:28.56 |    2:20.02   |      191156      |     201657     
      19  | 44:48.58 |    2:29.06   |      201658      |     212838     
      20  | 47:17.64 |    2:38.08   |      212839      |     224696     
      21  | 49:55.72 |    2:41.00   |      224697      |     236771     
      22  | 52:36.72 |    2:19.49   |      236772      |     247245     
      23  | 54:56.46 |    2:22.13   |      247246      |     257908     
      24  | 57:18.59 |    1:51.38   |      257909      |     266271     
      25  | 59:10.22 |    2:12.48   |      266272      |     276219     
      26  | 61:22.70 |    1:51.54   |      276220      |     284598     
      27  | 63:14.49 |    2:13.30   |      284599      |     294603     
      28  | 65:28.04 |    3:34.04   |      294604      |     310657     
      29  | 69:02.08 |    3:46.65   |      310658      |     327672     

Характеристики диапазона извлечения и сообщения об ошибках

Выбранный диапазон

     Имя файла M:\Союз-25 (1999) lossless, non-stop\Союз-25.wav

     Пиковый уровень 100.0 %
     Качество диапазона 99.9 %
     CRC теста 8D16446D
     CRC копии 8D16446D
     Копирование... OK

Ошибок не произошло

 
AccurateRip: сводка
 
Трек  1  нет в базе данных
Трек  2  нет в базе данных
Трек  3  нет в базе данных
Трек  4  нет в базе данных
Трек  5  нет в базе данных
Трек  6  нет в базе данных
Трек  7  нет в базе данных
Трек  8  нет в базе данных
Трек  9  нет в базе данных
Трек 10  нет в базе данных
Трек 11  нет в базе данных
Трек 12  нет в базе данных
Трек 13  нет в базе данных
Трек 14  нет в базе данных
Трек 15  нет в базе данных
Трек 16  нет в базе данных
Трек 17  нет в базе данных
Трек 18  нет в базе данных
Трек 19  нет в базе данных
Трек 20  нет в базе данных
Трек 21  нет в базе данных
Трек 22  нет в базе данных
Трек 23  нет в базе данных
Трек 24  нет в базе данных
Трек 25  нет в базе данных
Трек 26  нет в базе данных
Трек 27  нет в базе данных
Трек 28  нет в базе данных
Трек 29  нет в базе данных
 
Ни одного трека нет в базе AccurateRip

Конец отчёта
Релиз: pic


Страница 1 из 1

new_topic  reply_topic

Текущее время: 27-Окт 04:06
Часовой пояс: GMT + 4

m Сделано с любовью PR-CY.ru Каталог webplus.info