Вход на сайт

Имя:
Пароль:

· Забыли пароль?
logo
Портал Форум
Регистрация Вход


new_topic  reply_topic

  (Pop) Союз 35, non-stop - 2004, FLAC (image + .cue)

pic
Год выпуска: 2004
Страна: Россия
Жанр: Pop
Номер #: SZCD 2816-04 (Студия "СОЮЗ")
Продолжительность: 1:14:13

Тип издания: сборник
Аудио кодек: FLAC
Тип рипа: (image + .cue)
Битрейт аудио: lossless

Треклист:
  1. Русский размер, Профессор Лебединский и Дмитрий Нагиев - Я ее Хой
  2. Юлиана Караулова - Я попала в сети
  3. Чай вдвоем - А ты все ждешь
  4. Женя Малахова - Клинит
  5. Дима Маликов - Вишневая смола
  6. Тутси - Самый, самый
  7. Андрей Губин и Александра Балакирева - Время романтиков
  8. DJ Грув - Утро / Служебный роман 2
  9. Кристина Орбакайте - Губки бантиком
  10. Корни - Это ты объявила войну
  11. София Ротару - Ты улетишь
  12. Людмила Гурченко и Борис Моисеев - Петербург-Ленинград
  13. Ленинград - Геленджик (версия 2)
  14. Лазурный берег - Хочу замуж
  15. Мигель - Песня настоящего фаната Kylie Minogue
  16. MC Вспышкин & Никифоровна - Новогодняя (Меня прет)
  17. ВИА Гра - Мир, о котором я не знала до тебя
  18. Обратите внимание - Одна в этом мире
  19. Пропаганда - Сердце уходит в разведку
  20. Крестная семья - Удача
  21. Премьер-министр - Ай-яй (Мне бы не было печали)
  22. Надежда Кадышева и "Золотое кольцо" - Все уже когда-то было
  23. "Любэ" и офицеры группы "Альфа" - По высокой траве
  24. Фабрика - Он
  25. Дима Билан - На берегу неба (ремикс)
  26. Валерия - Перелей вода (remix) (Iron Beat production)
  27. Триплекс - Ирония судьбы 2005
  28. Уматурман - Проститься

Код:

Exact Audio Copy V0.99 prebeta 5 from 4. May 2009

Отчёт EAC об извлечении, выполненном 9. октября 2011, 15:48

Various / Союз-35

Дисковод: TSSTcorpCDDVDW SH-S223B   Adapter: 2  ID: 0

Режим чтения                 : Достоверность
Использование точного потока : Да
Отключение кэша аудио        : Да
Использование указателей C2  : Нет

Коррекция смещения при чтении                     : 6
Способность читать области Lead-in и Lead-out     : Нет
Заполнение пропущенных сэмплов тишиной            : Да
Удаление блоков с тишиной в начале и конце        : Нет
При вычислениях CRC использовались нулевые сэмплы : Да
Интерфейс                                         : Встроенный Win32-интерфейс для Win NT/2000

Выходной формат : Внутренние WAV-операции
Формат сэмплов  : 44.100 Гц; 16 бит; стерео

TOC извлечённого CD

     Трек |   Старт  | Длительность | Начальный сектор | Конечный сектор
    ---------------------------------------------------------------------
       1  |  0:00.00 |    3:15.49   |           0      |      14673     
       2  |  3:15.49 |    2:01.56   |       14674      |      23804     
       3  |  5:17.30 |    2:34.54   |       23805      |      35408     
       4  |  7:52.09 |    2:45.51   |       35409      |      47834     
       5  | 10:37.60 |    2:15.06   |       47835      |      57965     
       6  | 12:52.66 |    2:13.34   |       57966      |      67974     
       7  | 15:06.25 |    2:46.47   |       67975      |      80471     
       8  | 17:52.72 |    1:59.09   |       80472      |      89405     
       9  | 19:52.06 |    2:04.33   |       89406      |      98738     
      10  | 21:56.39 |    2:25.01   |       98739      |     109614     
      11  | 24:21.40 |    3:01.44   |      109615      |     123233     
      12  | 27:23.09 |    2:25.70   |      123234      |     134178     
      13  | 29:49.04 |    2:43.04   |      134179      |     146407     
      14  | 32:32.08 |    2:41.56   |      146408      |     158538     
      15  | 35:13.64 |    2:32.28   |      158539      |     169966     
      16  | 37:46.17 |    3:37.04   |      169967      |     186245     
      17  | 41:23.21 |    2:30.48   |      186246      |     197543     
      18  | 43:53.69 |    2:39.04   |      197544      |     209472     
      19  | 46:32.73 |    2:42.35   |      209473      |     221657     
      20  | 49:15.33 |    2:39.40   |      221658      |     233622     
      21  | 51:54.73 |    2:19.05   |      233623      |     244052     
      22  | 54:14.03 |    2:24.70   |      244053      |     254922     
      23  | 56:38.73 |    3:19.63   |      254923      |     269910     
      24  | 59:58.61 |    1:57.10   |      269911      |     278695     
      25  | 61:55.71 |    2:04.46   |      278696      |     288041     
      26  | 64:00.42 |    2:05.68   |      288042      |     297484     
      27  | 66:06.35 |    3:06.48   |      297485      |     311482     
      28  | 69:13.08 |    5:00.03   |      311483      |     333985     

Характеристики диапазона извлечения и сообщения об ошибках

Выбранный диапазон

     Имя файла M:\Сборники\Сборники СОЮЗ\Союз-35 (2004) lossless, non-stop\Союз-35.wav

     Пиковый уровень 96.6 %
     Качество диапазона 100.0 %
     CRC теста 808259F6
     CRC копии 808259F6
     Копирование... OK

Ошибок не произошло

 
AccurateRip: сводка
 
Трек  1  точность не определена (достоверность 1)  [1DFD1BC0], AccurateRip вернул [8FFD5C61]
Трек  2  точность не определена (достоверность 1)  [B0CCEFD3], AccurateRip вернул [08E81B97]
Трек  3  точность не определена (достоверность 1)  [8FD158C5], AccurateRip вернул [E098EF5A]
Трек  4  точность не определена (достоверность 1)  [2D6D86B8], AccurateRip вернул [E75DEDE4]
Трек  5  точность не определена (достоверность 1)  [37A0F2C9], AccurateRip вернул [358764C3]
Трек  6  точность не определена (достоверность 1)  [02EC956F], AccurateRip вернул [B2E4304F]
Трек  7  точность не определена (достоверность 1)  [61FB3E88], AccurateRip вернул [583FCC57]
Трек  8  точность не определена (достоверность 1)  [79E425E1], AccurateRip вернул [7C3BE2DA]
Трек  9  точность не определена (достоверность 1)  [E40717B7], AccurateRip вернул [EA1CB1C4]
Трек 10  точность не определена (достоверность 1)  [68FE2EF3], AccurateRip вернул [C52DC7A5]
Трек 11  точность не определена (достоверность 1)  [0890C28B], AccurateRip вернул [D4DB1E66]
Трек 12  точность не определена (достоверность 1)  [59BA4D65], AccurateRip вернул [499A5803]
Трек 13  точность не определена (достоверность 1)  [C6E438C1], AccurateRip вернул [D5054B8E]
Трек 14  точность не определена (достоверность 1)  [0FF0703F], AccurateRip вернул [F77A5EEB]
Трек 15  точность не определена (достоверность 1)  [D2FB3648], AccurateRip вернул [63AAF55D]
Трек 16  точность не определена (достоверность 1)  [6F1B4A3B], AccurateRip вернул [884E33D8]
Трек 17  точность не определена (достоверность 1)  [75649DAC], AccurateRip вернул [4ACAFD05]
Трек 18  точность не определена (достоверность 1)  [B0AE0C3C], AccurateRip вернул [9189F441]
Трек 19  точность не определена (достоверность 1)  [D7F71D2C], AccurateRip вернул [2676D2B3]
Трек 20  точность не определена (достоверность 1)  [863741CB], AccurateRip вернул [390D671D]
Трек 21  точность не определена (достоверность 1)  [4FCB76B5], AccurateRip вернул [2EC7689C]
Трек 22  точность не определена (достоверность 1)  [3F902468], AccurateRip вернул [9E1CF3E9]
Трек 23  точность не определена (достоверность 1)  [D05ADC1C], AccurateRip вернул [D8759BA4]
Трек 24  точность не определена (достоверность 1)  [3F13AFC6], AccurateRip вернул [C05771CB]
Трек 25  точность не определена (достоверность 1)  [4D3DA347], AccurateRip вернул [3C233203]
Трек 26  точность не определена (достоверность 1)  [ABCD6E0B], AccurateRip вернул [F1028ECC]
Трек 27  точность не определена (достоверность 1)  [D5AA5248], AccurateRip вернул [CFF21925]
Трек 28  точность не определена (достоверность 1)  [D4523CB4], AccurateRip вернул [6AFBECDA]
 
Ни один трек не прошёл проверки на точность
В вашей базе может быть иной вариант штамповки диска

Конец отчёта
Релиз: pic


Ядовитый оранжевый цвет на обложке никак не хотел сканироваться.

В реальности обложка выглядит так:
pic
dimassamid да у меня тоже было такое, натуральный цвет бывал искажался.
а что надо сделать,чтобы начать качать,а то ничего не понял,нигде не видел,в общем обьясните,что надо сделать??!

а точнее,как повысить активность для скачивания,а то непонятно что-то ничего???!!!
Gonfilm в правилах на главной странице форума все ясно изложено.
Alex2GB ты так и будешь каждому объяснять? Они получают ЛС с инструкциями, для них все расписано. Если человек ленится почитать доки, мы тут причем. Надо прятать кнопку "КАЧЕН"

Цитата:

Надо прятать кнопку "КАЧЕН"
dimka007 спрячь .

Страница 1 из 1

new_topic  reply_topic

Текущее время: 27-Окт 05:00
Часовой пояс: GMT + 4

m Сделано с любовью PR-CY.ru Каталог webplus.info