Вход на сайт

Имя:
Пароль:

· Забыли пароль?
logo
Портал Форум
Регистрация Вход


new_topic  reply_topic

  (Pop) Союз 36, non-stop - 2005, FLAC (image + .cue)

pic
Год выпуска: 2005
Страна: Россия
Жанр: Pop
Номер #: SZCD 3093-05 (Студия "СОЮЗ")
Продолжительность: 1:19:50

Тип издания: сборник
Аудио кодек: FLAC
Тип рипа: (image + .cue)
Битрейт аудио: lossless

Треклист:
  1. X-Mode & DJ Nil - La peregrinacion / Животные
  2. Дискотека Авария - Если хочешь остаться…
  3. Пропаганда - Одни дома
  4. Валерий Меладзе - Салют, Вера!
  5. Кристина Орбакайте - Каждый день с тобой
  6. Triplex vs. Apocalyptica - Бой с тенью
  7. Гости из будущего - Синий иней
  8. Профессор Лебединский и "Русский размер" - Я косолапый мишка
  9. Жанна Фриске - Ла-ла-ла
  10. Любэ - Не смотри на часы
  11. Vengerov & Fedoroff - Джентльмены удачи
  12. Стас Пьеха и Валерия - Ты грустишь
  13. Hi-Fi - Берега
  14. MC Вспышкин & Никифоровна - ДискотЭка
  15. Уматурман - Ума Турман (original version)
  16. "Краски" и Андрей Губин - Те, кто любит
  17. Обратите внимание - Помни ее
  18. Жасмин - Как ты мне нужен
  19. Крестная семья - На карнавале
  20. Катя Чехова - Крылья
  21. Руслан Алехно, Александр Панайотов, Алексей Чумаков - Необыкновенная
  22. Надежда Кадышева и "Золотое кольцо" - Мосток
  23. Звери - Напитки покрепче
  24. Светлана Владимирская - Весна
  25. Джанго - Холодная весна
  26. Николай Семенов / Карнавал Project - Baker Street

Код:

Exact Audio Copy V0.99 prebeta 5 from 4. May 2009

Отчёт EAC об извлечении, выполненном 9. октября 2011, 18:14

Various Artists / Союз-36

Дисковод: TSSTcorpCDDVDW SH-S223B   Adapter: 2  ID: 0

Режим чтения                 : Достоверность
Использование точного потока : Да
Отключение кэша аудио        : Да
Использование указателей C2  : Нет

Коррекция смещения при чтении                     : 6
Способность читать области Lead-in и Lead-out     : Нет
Заполнение пропущенных сэмплов тишиной            : Да
Удаление блоков с тишиной в начале и конце        : Нет
При вычислениях CRC использовались нулевые сэмплы : Да
Интерфейс                                         : Встроенный Win32-интерфейс для Win NT/2000

Выходной формат : Внутренние WAV-операции
Формат сэмплов  : 44.100 Гц; 16 бит; стерео

TOC извлечённого CD

     Трек |   Старт  | Длительность | Начальный сектор | Конечный сектор
    ---------------------------------------------------------------------
       1  |  0:00.00 |    3:13.66   |           0      |      14540     
       2  |  3:13.66 |    4:07.44   |       14541      |      33109     
       3  |  7:21.35 |    2:38.60   |       33110      |      45019     
       4  | 10:00.20 |    2:41.01   |       45020      |      57095     
       5  | 12:41.21 |    2:29.05   |       57096      |      68275     
       6  | 15:10.26 |    3:27.48   |       68276      |      83848     
       7  | 18:37.74 |    3:29.65   |       83849      |      99588     
       8  | 22:07.64 |    2:48.51   |       99589      |     112239     
       9  | 24:56.40 |    2:27.09   |      112240      |     123273     
      10  | 27:23.49 |    3:23.47   |      123274      |     138545     
      11  | 30:47.21 |    3:39.61   |      138546      |     155031     
      12  | 34:27.07 |    3:09.38   |      155032      |     169244     
      13  | 37:36.45 |    2:57.65   |      169245      |     182584     
      14  | 40:34.35 |    2:57.28   |      182585      |     195887     
      15  | 43:31.63 |    3:49.51   |      195888      |     213113     
      16  | 47:21.39 |    3:00.43   |      213114      |     226656     
      17  | 50:22.07 |    2:45.14   |      226657      |     239045     
      18  | 53:07.21 |    2:46.13   |      239046      |     251508     
      19  | 55:53.34 |    3:12.34   |      251509      |     265942     
      20  | 59:05.68 |    2:27.25   |      265943      |     276992     
      21  | 61:33.18 |    3:32.29   |      276993      |     292921     
      22  | 65:05.47 |    2:59.27   |      292922      |     306373     
      23  | 68:04.74 |    3:21.59   |      306374      |     321507     
      24  | 71:26.58 |    2:31.43   |      321508      |     332875     
      25  | 73:58.26 |    2:58.62   |      332876      |     346287     
      26  | 76:57.13 |    2:53.48   |      346288      |     359310     

Характеристики диапазона извлечения и сообщения об ошибках

Выбранный диапазон

     Имя файла M:\Сборники\Сборники СОЮЗ\Союз-36 (2005) lossless, non-stop\Союз-36.wav

     Пиковый уровень 96.6 %
     Качество диапазона 100.0 %
     CRC теста E820F728
     CRC копии E820F728
     Копирование... OK

Ошибок не произошло

 
AccurateRip: сводка
 
Трек  1  нет в базе данных
Трек  2  нет в базе данных
Трек  3  нет в базе данных
Трек  4  нет в базе данных
Трек  5  нет в базе данных
Трек  6  нет в базе данных
Трек  7  нет в базе данных
Трек  8  нет в базе данных
Трек  9  нет в базе данных
Трек 10  нет в базе данных
Трек 11  нет в базе данных
Трек 12  нет в базе данных
Трек 13  нет в базе данных
Трек 14  нет в базе данных
Трек 15  нет в базе данных
Трек 16  нет в базе данных
Трек 17  нет в базе данных
Трек 18  нет в базе данных
Трек 19  нет в базе данных
Трек 20  нет в базе данных
Трек 21  нет в базе данных
Трек 22  нет в базе данных
Трек 23  нет в базе данных
Трек 24  нет в базе данных
Трек 25  нет в базе данных
Трек 26  нет в базе данных
 
Ни одного трека нет в базе AccurateRip

Конец отчёта
Релиз: pic


dimassamid СОЮЗиков прикупил?

Страница 1 из 1

new_topic  reply_topic

Текущее время: 27-Окт 06:56
Часовой пояс: GMT + 4

m Сделано с любовью PR-CY.ru Каталог webplus.info