Вход на сайт

Имя:
Пароль:

· Забыли пароль?
logo
Портал Форум
Регистрация Вход


new_topic  reply_topic

  (Pop) Союз 29, full - 2002, FLAC (image + .cue)

pic
Год выпуска: 2002
Страна: Россия
Жанр: Pop
Номер #: SZCD 1460-02 (Студия "СОЮЗ")
Продолжительность: 1:11:32 + 1:06:04

Тип издания: сборник
Аудио кодек: FLAC
Тип рипа: (image + .cue)
Битрейт аудио: lossless

Треклист:

CD1

  1. Дискотека авария - На острие атаки
  2. Евро (ex. Karapuzikee) - 4-5!
  3. Вирус - Попрошу тебя
  4. Алиса - Веретено
  5. Игорь Николаев - Пять причин
  6. Аквариум - Брод
  7. Иван Купала - Велик день
  8. Леприконсы & Arrival Project - Тополя (Arrival project mix)
  9. Пропаганда - Мелом (remix)
  10. Отпетые мошенники - А у реки
  11. Валерия - Таю
  12. Сплин - Мое сердце
  13. Ундервуд - Парабеллум
  14. Иванушки International - Капелька света
  15. Монокини - Дотянуться до Солнца
  16. 7Б - Осень
  17. Роботы ППК, Василий Стрельников, Наташа и Сева - Лох - это судьба
  18. Чугунный скороход - Пидоры идут


CD2

  1. Shura - Старый художник
  2. Сливки - Летели недели
  3. Лицо кавзазской национальности - В Яндаре
  4. Чичерина - Блюдца
  5. Юрий Шатунов - Снег в сентябре
  6. Таня Буланова - Золотая пора
  7. Света - Другая
  8. Бонч Бру Бонч & Ляпис Трубецкой - Голуби (Мерзкая птица mix)
  9. Валентина Толкунова - Тихий дворик, старый домик
  10. Надежда Кадышева и ансамбль "Золотое кольцо" - Подари, березка
  11. Машина времени - Оставь меня
  12. ВИА ГРА - Я не вернусь
  13. Горячие головы - Бананылопалабомба
  14. Подъем! - А я тебя такую!
  15. Акула - Я убегаю
  16. Седьмой прохожий - Золотые капли
  17. Би-2 - Моя любовь

Код:

Exact Audio Copy V0.99 prebeta 5 from 4. May 2009

Отчёт EAC об извлечении, выполненном 21. октября 2011, 22:56

Various / Союз-29. CD1

Дисковод: TSSTcorpCDDVDW SH-S223B   Adapter: 2  ID: 0

Режим чтения                 : Достоверность
Использование точного потока : Да
Отключение кэша аудио        : Да
Использование указателей C2  : Нет

Коррекция смещения при чтении                     : 6
Способность читать области Lead-in и Lead-out     : Нет
Заполнение пропущенных сэмплов тишиной            : Да
Удаление блоков с тишиной в начале и конце        : Нет
При вычислениях CRC использовались нулевые сэмплы : Да
Интерфейс                                         : Встроенный Win32-интерфейс для Win NT/2000

Выходной формат : Внутренние WAV-операции
Формат сэмплов  : 44.100 Гц; 16 бит; стерео

TOC извлечённого CD

     Трек |   Старт  | Длительность | Начальный сектор | Конечный сектор
    ---------------------------------------------------------------------
       1  |  0:00.10 |    3:30.17   |          10      |      15776     
       2  |  3:30.27 |    3:16.46   |       15777      |      30522     
       3  |  6:46.73 |    3:46.37   |       30523      |      47509     
       4  | 10:33.35 |    4:02.32   |       47510      |      65691     
       5  | 14:35.67 |    3:22.34   |       65692      |      80875     
       6  | 17:58.26 |    4:15.61   |       80876      |     100061     
       7  | 22:14.12 |    3:58.53   |      100062      |     117964     
       8  | 26:12.65 |    4:19.03   |      117965      |     137392     
       9  | 30:31.68 |    4:33.61   |      137393      |     157928     
      10  | 35:05.54 |    3:45.28   |      157929      |     174831     
      11  | 38:51.07 |    4:56.17   |      174832      |     197048     
      12  | 43:47.24 |    4:06.26   |      197049      |     215524     
      13  | 47:53.50 |    2:57.03   |      215525      |     228802     
      14  | 50:50.53 |    4:47.12   |      228803      |     250339     
      15  | 55:37.65 |    4:02.20   |      250340      |     268509     
      16  | 59:40.10 |    3:29.66   |      268510      |     284250     
      17  | 63:10.01 |    3:43.41   |      284251      |     301016     
      18  | 66:53.42 |    4:38.45   |      301017      |     321911     

Характеристики диапазона извлечения и сообщения об ошибках

Выбранный диапазон

     Имя файла M:\Сборники\Сборники СОЮЗ\Союз-29 (2002) lossless, full\CD1\Союз-29. CD1.wav

     Пиковый уровень 100.0 %
     Качество диапазона 100.0 %
     CRC теста FEC283A0
     CRC копии FEC283A0
     Копирование... OK

Ошибок не произошло

 
AccurateRip: сводка
 
Трек  1  точное извлечение (доверие 1)  [1C6F6E0D]
Трек  2  точное извлечение (доверие 1)  [BDFEA985]
Трек  3  точное извлечение (доверие 1)  [9C9F9DE0]
Трек  4  точное извлечение (доверие 1)  [3E96A978]
Трек  5  точное извлечение (доверие 1)  [04B16457]
Трек  6  точное извлечение (доверие 1)  [514D5864]
Трек  7  точное извлечение (доверие 1)  [E53535D5]
Трек  8  точное извлечение (доверие 1)  [EB85DBFC]
Трек  9  точное извлечение (доверие 1)  [00F1A3CF]
Трек 10  точное извлечение (доверие 1)  [F3D27548]
Трек 11  точное извлечение (доверие 1)  [D4F7D46F]
Трек 12  точное извлечение (доверие 1)  [EBA5C399]
Трек 13  точное извлечение (доверие 1)  [BB44309B]
Трек 14  точное извлечение (доверие 1)  [BFFD70BD]
Трек 15  точное извлечение (доверие 1)  [70ED7E81]
Трек 16  точное извлечение (доверие 1)  [A019F331]
Трек 17  точное извлечение (доверие 1)  [4812E287]
Трек 18  точное извлечение (доверие 1)  [16C19B60]
 
Все треки извлечены точно

Конец отчёта

Код:

Exact Audio Copy V0.99 prebeta 5 from 4. May 2009

Отчёт EAC об извлечении, выполненном 22. октября 2011, 3:18

Various / Союз-29. CD2

Дисковод: TSSTcorpCDDVDW SH-S223B   Adapter: 2  ID: 0

Режим чтения                 : Достоверность
Использование точного потока : Да
Отключение кэша аудио        : Да
Использование указателей C2  : Нет

Коррекция смещения при чтении                     : 6
Способность читать области Lead-in и Lead-out     : Нет
Заполнение пропущенных сэмплов тишиной            : Да
Удаление блоков с тишиной в начале и конце        : Нет
При вычислениях CRC использовались нулевые сэмплы : Да
Интерфейс                                         : Встроенный Win32-интерфейс для Win NT/2000

Выходной формат : Внутренние WAV-операции
Формат сэмплов  : 44.100 Гц; 16 бит; стерео

TOC извлечённого CD

     Трек |   Старт  | Длительность | Начальный сектор | Конечный сектор
    ---------------------------------------------------------------------
       1  |  0:00.10 |    4:16.37   |          10      |      19246     
       2  |  4:16.47 |    4:06.26   |       19247      |      37722     
       3  |  8:22.73 |    4:12.52   |       37723      |      56674     
       4  | 12:35.50 |    3:11.28   |       56675      |      71027     
       5  | 15:47.03 |    4:01.58   |       71028      |      89160     
       6  | 19:48.61 |    4:25.65   |       89161      |     109100     
       7  | 24:14.51 |    4:06.39   |      109101      |     127589     
       8  | 28:21.15 |    4:20.10   |      127590      |     147099     
       9  | 32:41.25 |    3:05.03   |      147100      |     160977     
      10  | 35:46.28 |    3:06.69   |      160978      |     174996     
      11  | 38:53.22 |    4:19.26   |      174997      |     194447     
      12  | 43:12.48 |    3:46.31   |      194448      |     211428     
      13  | 46:59.04 |    3:06.49   |      211429      |     225427     
      14  | 50:05.53 |    3:51.51   |      225428      |     242803     
      15  | 53:57.29 |    3:41.38   |      242804      |     259416     
      16  | 57:38.67 |    2:58.47   |      259417      |     272813     
      17  | 60:37.39 |    5:26.60   |      272814      |     297323     

Характеристики диапазона извлечения и сообщения об ошибках

Выбранный диапазон

     Имя файла M:\Сборники\Сборники СОЮЗ\Союз-29 (2002) lossless, full\CD2\Союз-29. CD2.wav

     Пиковый уровень 100.0 %
     Качество диапазона 100.0 %
     CRC теста 399BCB9A
     CRC копии 399BCB9A
     Копирование... OK

Ошибок не произошло

 
AccurateRip: сводка
 
Трек  1  точное извлечение (доверие 1)  [41D00603]
Трек  2  точное извлечение (доверие 1)  [E37B3D2E]
Трек  3  точное извлечение (доверие 1)  [824C1FC8]
Трек  4  точное извлечение (доверие 1)  [DA0A4E1E]
Трек  5  точное извлечение (доверие 1)  [FF1A485D]
Трек  6  точное извлечение (доверие 1)  [3A869C06]
Трек  7  точное извлечение (доверие 1)  [44138F57]
Трек  8  точное извлечение (доверие 1)  [848CF779]
Трек  9  точное извлечение (доверие 1)  [3FE96A62]
Трек 10  точное извлечение (доверие 1)  [39646F3F]
Трек 11  точное извлечение (доверие 1)  [606020BF]
Трек 12  точное извлечение (доверие 1)  [C312FAE0]
Трек 13  точное извлечение (доверие 1)  [F1BCECE1]
Трек 14  точное извлечение (доверие 1)  [77B8F9DE]
Трек 15  точное извлечение (доверие 1)  [17BCB4DF]
Трек 16  точное извлечение (доверие 1)  [7687FC66]
Трек 17  точное извлечение (доверие 1)  [49A7DB8B]
 
Все треки извлечены точно

Конец отчёта
Релиз: pic


Страница 1 из 1

new_topic  reply_topic

Текущее время: 27-Окт 08:19
Часовой пояс: GMT + 4

m Сделано с любовью PR-CY.ru Каталог webplus.info