Вход на сайт

Имя:
Пароль:

· Забыли пароль?
logo
Портал Форум
Регистрация Вход


new_topic  reply_topic

  (Christmas) Christmas Time - 2000, FLAC (image + .cue)

pic
Год выпуска: 2000
Производитель: Швеция
Жанр: Pop, Christmas
Номер #: SACD 1239 (Scranta Grammofon AB)
Продолжительность: 0:50:52

Тип издания: сборник
Аудио кодек: FLAC
Тип рипа: (image + .cue)
Битрейт аудио: lossless

Треклист:

  1. José Feliciano - Feliz Navidad
  2. Dean Martin - Winter Wonderland
  3. Lou Rawls - Sleigh Ride
  4. Frankie Avalon - Blue Christmas
  5. Frank Sinatra - Santa Claus Is Coming To Town
  6. Roy Orbison - Pretty Paper
  7. Melanie - We Wish You A Merry Christmas
  8. Bob Marley - Long Long Winter
  9. Mahalia Jackson - Silent Night, Holy Night
  10. The Golden Gate Quartet - Amen
  11. Bing Crosby / Ella Fitzgerald - Silver Bells
  12. United Gospel Chorus - Joshua Fit The Battle Of Jericho
  13. Julie Felix - Amazing Grace
  14. Dana Dragomir - Joy To The World
  15. Luciano Pavarotti - Oh Holy Night
  16. Nat King Cole - Jingle Bells
  17. Frank Sinatra - White Christmas

Код:

Exact Audio Copy V0.99 prebeta 5 from 4. May 2009

Отчёт EAC об извлечении, выполненном 25. декабря 2011, 2:21

Various / Christmas Time

Дисковод: TSSTcorpCDDVDW SH-S223B   Adapter: 2  ID: 0

Режим чтения                 : Достоверность
Использование точного потока : Да
Отключение кэша аудио        : Да
Использование указателей C2  : Нет

Коррекция смещения при чтении                     : 6
Способность читать области Lead-in и Lead-out     : Нет
Заполнение пропущенных сэмплов тишиной            : Да
Удаление блоков с тишиной в начале и конце        : Нет
При вычислениях CRC использовались нулевые сэмплы : Да
Интерфейс                                         : Встроенный Win32-интерфейс для Win NT/2000

Выходной формат : Внутренние WAV-операции
Формат сэмплов  : 44.100 Гц; 16 бит; стерео

TOC извлечённого CD

     Трек |   Старт  | Длительность | Начальный сектор | Конечный сектор
    ---------------------------------------------------------------------
       1  |  0:00.00 |    3:05.72   |           0      |      13946     
       2  |  3:05.72 |    1:57.04   |       13947      |      22725     
       3  |  5:03.01 |    2:18.02   |       22726      |      33077     
       4  |  7:21.03 |    2:56.50   |       33078      |      46327     
       5  | 10:17.53 |    2:37.05   |       46328      |      58107     
       6  | 12:54.58 |    2:37.21   |       58108      |      69903     
       7  | 15:32.04 |    2:30.41   |       69904      |      81194     
       8  | 18:02.45 |    3:03.66   |       81195      |      94985     
       9  | 21:06.36 |    4:26.32   |       94986      |     114967     
      10  | 25:32.68 |    2:52.12   |      114968      |     127879     
      11  | 28:25.05 |    2:59.68   |      127880      |     141372     
      12  | 31:24.73 |    3:05.45   |      141373      |     155292     
      13  | 34:30.43 |    4:01.16   |      155293      |     173383     
      14  | 38:31.59 |    3:03.07   |      173384      |     187115     
      15  | 41:34.66 |    2:37.15   |      187116      |     198905     
      16  | 44:12.06 |    3:09.45   |      198906      |     213125     
      17  | 47:21.51 |    3:30.33   |      213126      |     228908     

Характеристики диапазона извлечения и сообщения об ошибках

Выбранный диапазон

     Имя файла M:\Сборники\Christmas Time\Christmas Time.wav

     Пиковый уровень 100.0 %
     Качество диапазона 100.0 %
     CRC теста 7B3492A9
     CRC копии 7B3492A9
     Копирование... OK

Ошибок не произошло

 
AccurateRip: сводка
 
Трек  1  точное извлечение (доверие 2)  [5ACB4209]
Трек  2  точное извлечение (доверие 2)  [01091066]
Трек  3  точное извлечение (доверие 2)  [144BD741]
Трек  4  точное извлечение (доверие 2)  [0E19322C]
Трек  5  точное извлечение (доверие 2)  [E2F1BBAC]
Трек  6  точное извлечение (доверие 2)  [7DCE06D4]
Трек  7  точное извлечение (доверие 2)  [8A09DEF2]
Трек  8  точное извлечение (доверие 2)  [81B547E1]
Трек  9  точное извлечение (доверие 2)  [171C6292]
Трек 10  точное извлечение (доверие 2)  [2E9039B8]
Трек 11  точное извлечение (доверие 2)  [A80AA9D7]
Трек 12  точное извлечение (доверие 2)  [7E94C101]
Трек 13  точное извлечение (доверие 2)  [27E7AA93]
Трек 14  точное извлечение (доверие 2)  [CE80DC07]
Трек 15  точное извлечение (доверие 2)  [FF583B68]
Трек 16  точное извлечение (доверие 2)  [C35829C2]
Трек 17  точное извлечение (доверие 2)  [E84C584F]
 
Все треки извлечены точно

Конец отчёта
В честь праздников релиз открыт для всех желающих!
Приятного прослушивания!

Страница 1 из 1

new_topic  reply_topic

Текущее время: 24-Янв 07:43
Часовой пояс: GMT + 4

m Сделано с любовью PR-CY.ru Каталог webplus.info