Вход на сайт

Имя:
Пароль:

· Забыли пароль?
logo
Портал Форум
Регистрация Вход


new_topic  reply_topic

  (Pop) Jouluhitt 1995, FLAC (image + .cue)

pic
Год выпуска: 1995
Страна: Эстония
Жанр: Pop
Номер #: POT CD 1010 (Aidem Pot Records)
Продолжительность: 1:06:33

Тип издания: сборник
Аудио кодек: FLAC
Тип рипа: (image + .cue)
Битрейт аудио: lossless

Треклист:

  1. Intro - Eesti Ekspress Esitleb (Jõuluhitt 1995) (0:25)
  2. Insignia feat. Elektra - Love (4:31)
  3. Hedvig Hanson, Maarja-Liis, Pearu paulus, Mart mardisalu - Jingle Bells (Aisakell) (4:53)
  4. Code One - Peegel (Siizl-Miizl Mix) (4:17)
  5. 2 Quick Start - Kinni sind püüan (Klubi Mix) (4:41)
  6. Kalle ja Astra - Jääkuninganna (4:26)
  7. Nancy - Ainult teisi näed (4:56)
  8. Ummamuudu - Jõuluootus (3:59)
  9. Maarja-Liis - Last Christmas (4:53)
  10. Mr. Happyman - Jõuluaeg (4:22)
  11. Tiiu - Vali Tali (Jõulunali) (3:34)
  12. Must Q - Soov (3:43)
  13. Nancy - Hellalt hoia mind (Mitro Mix) (4:08)
  14. Singer Vinger feat. KL - Kodusõda (4:24)
  15. B & S War Song - Kadrilaul (4:57)
  16. Toomas Uibo - Ave Maria (4:17)

Код:

Exact Audio Copy V0.99 prebeta 5 from 4. May 2009

Отчёт EAC об извлечении, выполненном 12. января 2012, 12:09

Various / Jouluhitt 1995

Дисковод: SlimtypeDVD A  DS8A3S   Adapter: 1  ID: 0

Режим чтения                 : Достоверность
Использование точного потока : Да
Отключение кэша аудио        : Да
Использование указателей C2  : Нет

Коррекция смещения при чтении                     : 6
Способность читать области Lead-in и Lead-out     : Нет
Заполнение пропущенных сэмплов тишиной            : Да
Удаление блоков с тишиной в начале и конце        : Нет
При вычислениях CRC использовались нулевые сэмплы : Да
Интерфейс                                         : Встроенный Win32-интерфейс для Win NT/2000

Выходной формат : Внутренние WAV-операции
Формат сэмплов  : 44.100 Гц; 16 бит; стерео

TOC извлечённого CD

     Трек |   Старт  | Длительность | Начальный сектор | Конечный сектор
    ---------------------------------------------------------------------
       1  |  0:00.00 |    0:25.39   |           0      |       1913     
       2  |  0:25.39 |    4:31.20   |        1914      |      22258     
       3  |  4:56.59 |    4:53.16   |       22259      |      44249     
       4  |  9:50.00 |    4:17.02   |       44250      |      63526     
       5  | 14:07.02 |    4:41.67   |       63527      |      84668     
       6  | 18:48.69 |    4:26.14   |       84669      |     104632     
       7  | 23:15.08 |    4:56.16   |      104633      |     126848     
       8  | 28:11.24 |    3:59.68   |      126849      |     144841     
       9  | 32:11.17 |    4:53.70   |      144842      |     166886     
      10  | 37:05.12 |    4:22.29   |      166887      |     186565     
      11  | 41:27.41 |    3:34.44   |      186566      |     202659     
      12  | 45:02.10 |    3:43.49   |      202660      |     219433     
      13  | 48:45.59 |    4:08.67   |      219434      |     238100     
      14  | 52:54.51 |    4:24.25   |      238101      |     257925     
      15  | 57:19.01 |    4:57.36   |      257926      |     280236     
      16  | 62:16.37 |    4:17.23   |      280237      |     299534     

Характеристики диапазона извлечения и сообщения об ошибках

Выбранный диапазон

     Имя файла C:\Users\Дмитрий\Desktop\Jouluhitt 1995\Jouluhitt 1995.wav

     Пиковый уровень 100.0 %
     Качество диапазона 100.0 %
     CRC теста 39E89664
     CRC копии 39E89664
     Копирование... OK

Ошибок не произошло

 
AccurateRip: сводка
 
Трек  1  нет в базе данных
Трек  2  нет в базе данных
Трек  3  нет в базе данных
Трек  4  нет в базе данных
Трек  5  нет в базе данных
Трек  6  нет в базе данных
Трек  7  нет в базе данных
Трек  8  нет в базе данных
Трек  9  нет в базе данных
Трек 10  нет в базе данных
Трек 11  нет в базе данных
Трек 12  нет в базе данных
Трек 13  нет в базе данных
Трек 14  нет в базе данных
Трек 15  нет в базе данных
Трек 16  нет в базе данных
 
Ни одного трека нет в базе AccurateRip

Конец отчёта
Релиз: pic


Круто ты затарился на этот раз.
VERY GOOD

VERY GOOD

Страница 1 из 1

new_topic  reply_topic

Текущее время: 16-Дек 04:54
Часовой пояс: GMT + 4

m Сделано с любовью PR-CY.ru Каталог webplus.info