Вход на сайт

Имя:
Пароль:

· Забыли пароль?
logo
Портал Форум
Регистрация Вход


new_topic  reply_topic

  (Pop) Союз 49, non-stop - 2011, FLAC (image + .cue)

pic
Год выпуска: 2011
Страна: Россия
Жанр: Pop
Номер #: SZCD 7407-11 (Студия "СОЮЗ")
Продолжительность: 1:18:04

Тип издания: сборник
Аудио кодек: FLAC
Тип рипа: (image + .cue)
Битрейт аудио: lossless

Треклист:

  1. Ёлка – На большом воздушном шаре
  2. Верка Сердючка – Смайлик
  3. Дискотека Авария feat. Кристина Орбакайте – Прогноз погоды
  4. Вера Брежнева – Реальная жизнь
  5. Григорий Лепс – Самый лучший день
  6. Кристина Орса и Митя Фомин – Не манекен
  7. T-Killah и Лоя – Вернись
  8. SEREBRO – Мама Люба
  9. Ногу свело – Чукотка
  10. Валерия и Николай Басков – Сохранив любовь
  11. Даша Суворова – Я пою тебе
  12. Винтаж – Деревья
  13. Валентин Стрыкало – Наше лето
  14. Жасмин - Лабу-Дабу
  15. Альмароин – Небо над нами
  16. ЧИ-ЛИ – Ромашковое поле
  17. ЖиVaGa – Я буду с тобой
  18. Жуки – Разлюбила
  19. Зара и Александр Розенбаум - Любовь на БИС
  20. Анна Семенович – Обманутые люди
  21. Карандаш – Встречай Москва
  22. Дмитрий Колдун - Ночной пилот
  23. Elvira T. – Всё решено
  24. Пропаганда - Наберу

Код:

Exact Audio Copy V0.99 prebeta 5 from 4. May 2009

Отчёт EAC об извлечении, выполненном 17. января 2012, 0:22

Various / Союз-49

Дисковод: TSSTcorpCDDVDW SH-S223B   Adapter: 2  ID: 0

Режим чтения                 : Достоверность
Использование точного потока : Да
Отключение кэша аудио        : Да
Использование указателей C2  : Нет

Коррекция смещения при чтении                     : 6
Способность читать области Lead-in и Lead-out     : Нет
Заполнение пропущенных сэмплов тишиной            : Да
Удаление блоков с тишиной в начале и конце        : Нет
При вычислениях CRC использовались нулевые сэмплы : Да
Интерфейс                                         : Встроенный Win32-интерфейс для Win NT/2000

Выходной формат : Внутренние WAV-операции
Формат сэмплов  : 44.100 Гц; 16 бит; стерео

TOC извлечённого CD

     Трек |   Старт  | Длительность | Начальный сектор | Конечный сектор
    ---------------------------------------------------------------------
       1  |  0:00.00 |    3:18.06   |           0      |      14855     
       2  |  3:18.06 |    3:42.10   |       14856      |      31515     
       3  |  7:00.16 |    3:19.07   |       31516      |      46447     
       4  | 10:19.23 |    3:32.65   |       46448      |      62412     
       5  | 13:52.13 |    3:44.21   |       62413      |      79233     
       6  | 17:36.34 |    3:14.70   |       79234      |      93853     
       7  | 20:51.29 |    2:28.34   |       93854      |     104987     
       8  | 23:19.63 |    3:36.54   |      104988      |     121241     
       9  | 26:56.42 |    3:45.04   |      121242      |     138120     
      10  | 30:41.46 |    3:30.63   |      138121      |     153933     
      11  | 34:12.34 |    3:19.62   |      153934      |     168920     
      12  | 37:32.21 |    2:49.01   |      168921      |     181596     
      13  | 40:21.22 |    2:26.12   |      181597      |     192558     
      14  | 42:47.34 |    3:22.40   |      192559      |     207748     
      15  | 46:09.74 |    2:40.33   |      207749      |     219781     
      16  | 48:50.32 |    2:29.47   |      219782      |     231003     
      17  | 51:20.04 |    2:37.70   |      231004      |     242848     
      18  | 53:57.74 |    2:58.07   |      242849      |     256205     
      19  | 56:56.06 |    4:09.48   |      256206      |     274928     
      20  | 61:05.54 |    2:42.26   |      274929      |     287104     
      21  | 63:48.05 |    3:53.18   |      287105      |     304597     
      22  | 67:41.23 |    3:45.59   |      304598      |     321531     
      23  | 71:27.07 |    3:22.11   |      321532      |     336692     
      24  | 74:49.18 |    3:14.64   |      336693      |     351306     

Характеристики диапазона извлечения и сообщения об ошибках

Выбранный диапазон

     Имя файла M:\Сборники\Сборники СОЮЗ\Союз-49 (2011) lossless, non-stop\Союз-49.wav

     Пиковый уровень 96.6 %
     Качество диапазона 99.9 %
     CRC теста 9A7457DD
     CRC копии 9A7457DD
     Копирование... OK

Ошибок не произошло

 
AccurateRip: сводка
 
Трек  1  нет в базе данных
Трек  2  нет в базе данных
Трек  3  нет в базе данных
Трек  4  нет в базе данных
Трек  5  нет в базе данных
Трек  6  нет в базе данных
Трек  7  нет в базе данных
Трек  8  нет в базе данных
Трек  9  нет в базе данных
Трек 10  нет в базе данных
Трек 11  нет в базе данных
Трек 12  нет в базе данных
Трек 13  нет в базе данных
Трек 14  нет в базе данных
Трек 15  нет в базе данных
Трек 16  нет в базе данных
Трек 17  нет в базе данных
Трек 18  нет в базе данных
Трек 19  нет в базе данных
Трек 20  нет в базе данных
Трек 21  нет в базе данных
Трек 22  нет в базе данных
Трек 23  нет в базе данных
Трек 24  нет в базе данных
 
Ни одного трека нет в базе AccurateRip

Конец отчёта
Релиз: pic


Страница 1 из 1

new_topic  reply_topic

Текущее время: 27-Окт 03:54
Часовой пояс: GMT + 4

m Сделано с любовью PR-CY.ru Каталог webplus.info