Вход на сайт

Имя:
Пароль:

· Забыли пароль?
logo
Портал Форум
Регистрация Вход


new_topic  reply_topic

  (Eurodance) Masterboy – Land Of Dreaming (Remixes) 1996, FLAC (image + .cue)

pic
Год выпуска: 1996
Страна: Германия
Жанр: Eurodance
Номер #: 576 607-2
Продолжительность: ~ 21минута

Тип издания: сингл
Аудио кодек: FLAC
Тип рипа: (image + .cue)
Битрейт аудио: lossless

Треклист:

01. Land Of Dreaming (Radio US Mix)
02. Land Of Dreaming (Cappella Club Mix)
03. Land Of Dreaming (Cappella T.S.O.B. Mix) (The Sound Of Brescia)
04. Land Of Dreaming (Unit House Rapless Mix)

Код:

Exact Audio Copy V0.99 prebeta 5 from 4. May 2009

Отчёт EAC об извлечении, выполненном 20. января 2012, 12:02

Masterboy / Land Of Dreaming (Remixes)

Дисковод: PLEXTOR DVDR   PX-800A   Adapter: 0  ID: 0

Режим чтения                 : Достоверность
Использование точного потока : Да
Отключение кэша аудио        : Да
Использование указателей C2  : Нет

Коррекция смещения при чтении                     : 48
Способность читать области Lead-in и Lead-out     : Нет
Заполнение пропущенных сэмплов тишиной            : Да
Удаление блоков с тишиной в начале и конце        : Нет
При вычислениях CRC использовались нулевые сэмплы : Да
Интерфейс                                         : Установленный внешний ASPI-интерфейс

Выходной формат : Внутренние WAV-операции
Формат сэмплов  : 44.100 Гц; 16 бит; стерео

TOC извлечённого CD

     Трек |   Старт  | Длительность | Начальный сектор | Конечный сектор
    ---------------------------------------------------------------------
       1  |  0:00.32 |    3:51.35   |          32      |      17391     
       2  |  3:51.67 |    6:10.10   |       17392      |      45151     
       3  | 10:02.02 |    5:44.50   |       45152      |      71001     
       4  | 15:46.52 |    5:14.10   |       71002      |      94561     

Характеристики диапазона извлечения и сообщения об ошибках

Выбранный диапазон

     Имя файла C:\Temp\Образы\Masterboy - Land Of Dreaming (Remixes).wav

     Пиковый уровень 100.0 %
     Качество диапазона 100.0 %
     CRC теста 5E16B15F
     CRC копии 5E16B15F
     Копирование... OK

Ошибок не произошло

 
AccurateRip: сводка
 
Трек  1  нет в базе данных
Трек  2  нет в базе данных
Трек  3  нет в базе данных
Трек  4  нет в базе данных
 
Ни одного трека нет в базе AccurateRip

Конец отчёта

Страница 1 из 1

new_topic  reply_topic

Текущее время: 23-Сен 01:13
Часовой пояс: GMT + 4

m Сделано с любовью PR-CY.ru Каталог webplus.info