Вход на сайт

Имя:
Пароль:

· Забыли пароль?
logo
Портал Форум
Регистрация Вход


new_topic  reply_topic

  (SpaceSynth) Hypnotix - Star Tracks - 1997, FLAC (image + .cue)

pic
Год выпуска: 1997
Производитель: Венгрия
Жанр: Spacesynth
Номер #: 537935-2 (PolyGram)
Продолжительность: 0:55:06

Тип контента: альбом
Аудио кодек: FLAC
Тип рипа: (image + .cue)
Битрейт аудио: lossless

Треклист:

  1. Star - T (0:40)
  2. Star Track 4,3,2,1 (4:20)
  3. Io Starship (1:04)
  4. Northstar (6:51)
  5. Terra & Luna (4:45)
  6. Draco (3:32)
  7. Orion 1. (4:50)
  8. Andromeda (4:18)
  9. The Red Planet (4:17)
  10. Quasar (6:05)
  11. Orion 2. (5:42)
  12. Lyra (5:03)
  13. Star Track 4,3,2,1 (Radio Version) (3:39)

Код:

Exact Audio Copy V0.99 prebeta 4 from 23. January 2008

Отчёт EAC об извлечении, выполненном 4. августа 2009, 7:34

hypnotix / star track

Дисковод: ASUS    DRW-1814BLT   Adapter: 2  ID: 0

Режим чтения                 : Достоверность
Использование точного потока : Да
Отключение кэша аудио        : Нет
Использование указателей C2  : Да

Коррекция смещения при чтении                     : 6
Способность читать области Lead-in и Lead-out     : Нет
Заполнение пропущенных сэмплов тишиной            : Да
Удаление блоков с тишиной в начале и конце        : Нет
При вычислениях CRC использовались нулевые сэмплы : Нет
Интерфейс                                         : Встроенный Win32-интерфейс SAV для Win NT/2000

Выходной формат : Внутренние WAV-операции
Формат сэмплов  : 44.100 Гц; 16 бит; стерео

TOC извлечённого CD

     Трек |   Старт  | Длительность | Начальный сектор | Конечный сектор
    ---------------------------------------------------------------------
       1  |  0:00.00 |    0:40.25   |           0      |       3024     
       2  |  0:40.25 |    4:20.22   |        3025      |      22546     
       3  |  5:00.47 |    1:04.06   |       22547      |      27352     
       4  |  6:04.53 |    6:51.27   |       27353      |      58204     
       5  | 12:56.05 |    4:45.13   |       58205      |      79592     
       6  | 17:41.18 |    3:31.71   |       79593      |      95488     
       7  | 21:13.14 |    4:50.08   |       95489      |     117246     
       8  | 26:03.22 |    4:18.10   |      117247      |     136606     
       9  | 30:21.32 |    4:16.66   |      136607      |     155872     
      10  | 34:38.23 |    6:04.62   |      155873      |     183234     
      11  | 40:43.10 |    5:41.55   |      183235      |     208864     
      12  | 46:24.65 |    5:03.11   |      208865      |     231600     
      13  | 51:28.01 |    3:38.66   |      231601      |     248016     

Характеристики диапазона извлечения и сообщения об ошибках

Выбранный диапазон

     Имя файла C:\Documents and Settings\Денис\Рабочий стол\lllytdsST\hypnotix - star track.wav

     Пиковый уровень 96.6 %
     Качество диапазона 100.0 %
     CRC копии E1C61188
     Копирование... OK

Ошибок не произошло

 
AccurateRip: сводка
 
Трек  1  нет в базе данных
Трек  2  нет в базе данных
Трек  3  нет в базе данных
Трек  4  нет в базе данных
Трек  5  нет в базе данных
Трек  6  нет в базе данных
Трек  7  нет в базе данных
Трек  8  нет в базе данных
Трек  9  нет в базе данных
Трек 10  нет в базе данных
Трек 11  нет в базе данных
Трек 12  нет в базе данных
Трек 13  нет в базе данных
 
Ни одного трека нет в базе AccurateRip

Конец отчёта
Первую часть трилогии можно слушать бесконечно! Плотный альбом!
Да они все очень хороши!

Страница 1 из 1

new_topic  reply_topic

Текущее время: 20-Июн 00:11
Часовой пояс: GMT + 4

m Сделано с любовью PR-CY.ru Каталог webplus.info