Вход на сайт

Имя:
Пароль:

· Забыли пароль?
logo
Портал Форум
Регистрация Вход


new_topic  reply_topic

  (Pop) Союз 13, non-stop - 1994, FLAC (image + .cue)

pic
Год выпуска: 1994
Страна: Россия
Производитель: Швеция
Жанр: Pop
Номер #: SZCD 0281-94 (Студия "СОЮЗ")
Продолжительность: 0:59:57

Тип издания: сборник
Аудио кодек: FLAC
Тип рипа: (image + .cue)
Битрейт аудио: lossless

Треклист:

  1. Вадим Казаченко - На летящем коне
  2. Андрей Губин - Мальчик бродяга
  3. Таня Буланова и "Летний сад" - Плачу
  4. Дмитрий Маликов - Спой мне
  5. Сергей Крылов - Стюардесса
  6. Игорь Корнилов - Девочка-гитара
  7. Лена Ильичева - Города
  8. Александр Айвазов - Ежик в тумане
  9. Кай Метов - Вспомни меня
  10. Александр Новиков - Шансоньетка
  11. Нона - Я ручная
  12. Леонид Агутин - Босоногий мальчик
  13. Сергей Чумаков - Валяй, гуляй
  14. Евгений Осин - Иволга
  15. Андрей Державин - В первый раз
  16. Маша Распутина - Много разных на свете песен
  17. Владимир Кузьмин - Я не Казанова
  18. Валерий Меладзе - Романс
  19. Аркадий Укупник - Сим-сим откройся
  20. Шахерезада - На крутом берегу
  21. Ефрем Амирамов - Устаю

Код:

Exact Audio Copy V0.99 prebeta 5 from 4. May 2009

Отчёт EAC об извлечении, выполненном 24. февраля 2012, 20:42

Various / Союз 13

Дисковод: TSSTcorpCDDVDW SH-S223B   Adapter: 2  ID: 0

Режим чтения                 : Достоверность
Использование точного потока : Да
Отключение кэша аудио        : Да
Использование указателей C2  : Нет

Коррекция смещения при чтении                     : 6
Способность читать области Lead-in и Lead-out     : Нет
Заполнение пропущенных сэмплов тишиной            : Да
Удаление блоков с тишиной в начале и конце        : Нет
При вычислениях CRC использовались нулевые сэмплы : Да
Интерфейс                                         : Встроенный Win32-интерфейс для Win NT/2000

Выходной формат : Внутренние WAV-операции
Формат сэмплов  : 44.100 Гц; 16 бит; стерео

TOC извлечённого CD

     Трек |   Старт  | Длительность | Начальный сектор | Конечный сектор
    ---------------------------------------------------------------------
       1  |  0:00.00 |    4:04.30   |           0      |      18329     
       2  |  4:04.30 |    2:51.00   |       18330      |      31154     
       3  |  6:55.30 |    3:05.40   |       31155      |      45069     
       4  | 10:00.70 |    2:03.17   |       45070      |      54311     
       5  | 12:04.12 |    3:16.68   |       54312      |      69079     
       6  | 15:21.05 |    2:09.20   |       69080      |      78774     
       7  | 17:30.25 |    2:35.50   |       78775      |      90449     
       8  | 20:06.00 |    3:16.02   |       90450      |     105151     
       9  | 23:22.02 |    2:46.53   |      105152      |     117654     
      10  | 26:08.55 |    1:52.35   |      117655      |     126089     
      11  | 28:01.15 |    2:37.67   |      126090      |     137931     
      12  | 30:39.07 |    2:10.05   |      137932      |     147686     
      13  | 32:49.12 |    2:01.03   |      147687      |     156764     
      14  | 34:50.15 |    4:28.27   |      156765      |     176891     
      15  | 39:18.42 |    2:36.08   |      176892      |     188599     
      16  | 41:54.50 |    1:54.12   |      188600      |     197161     
      17  | 43:48.62 |    3:42.18   |      197162      |     213829     
      18  | 47:31.05 |    2:54.00   |      213830      |     226879     
      19  | 50:25.05 |    2:35.37   |      226880      |     238541     
      20  | 53:00.42 |    3:04.13   |      238542      |     252354     
      21  | 56:04.55 |    3:53.12   |      252355      |     269841     

Характеристики диапазона извлечения и сообщения об ошибках

Выбранный диапазон

     Имя файла M:\Сборники\Сборники СОЮЗ\Союз-13 (1994) lossless, non-stop\Союз 13.wav

     Пиковый уровень 98.2 %
     Качество диапазона 100.0 %
     CRC теста 3353A7DE
     CRC копии 3353A7DE
     Копирование... OK

Ошибок не произошло

 
AccurateRip: сводка
 
Трек  1  нет в базе данных
Трек  2  нет в базе данных
Трек  3  нет в базе данных
Трек  4  нет в базе данных
Трек  5  нет в базе данных
Трек  6  нет в базе данных
Трек  7  нет в базе данных
Трек  8  нет в базе данных
Трек  9  нет в базе данных
Трек 10  нет в базе данных
Трек 11  нет в базе данных
Трек 12  нет в базе данных
Трек 13  нет в базе данных
Трек 14  нет в базе данных
Трек 15  нет в базе данных
Трек 16  нет в базе данных
Трек 17  нет в базе данных
Трек 18  нет в базе данных
Трек 19  нет в базе данных
Трек 20  нет в базе данных
Трек 21  нет в базе данных
 
Ни одного трека нет в базе AccurateRip

Конец отчёта
Огромная благодарность MNP за помощь в приобретении этого диска!

Релиз: pic


Цитата:

Компакт-диск выпущен в рекламных целях. Продажа запрещена.
Это первый компакт-диск из серии сборников СОЮЗ. Части 1-12 выпускались только на кассетах. Чтобы получить 13-й выпуск, необходимо было купить 10 кассет RAKS.

Реклама "Купите 10 кассет RAKS"
1. С кассеты:
2. С диска:
dimassamid круто, ты все же достал этот диск, наконец-то мечта сбылась

dimassamid писал(а):

Цитата:

Компакт-диск выпущен в рекламных целях. Продажа запрещена.
Это первый компакт-диск из серии сборников СОЮЗ. Части 1-12 выпускались только на кассетах. Чтобы получить 13-й выпуск, необходимо было купить 10 кассет RAKS.

Реклама "Купите 10 кассет RAKS"
1. С кассеты:
2. С диска:
Прикольно)) Интересно а почему они на CD не выпускали? По факту в отечественном производстве CD уже были вконце 80-х.... хотя союз впринципе не богатая была компания в начале своего развития.... хм....

DimonNT писал(а):

Интересно а почему они на CD не выпускали?
Потому-что в конце 90-х люди стали обзоводится CD проигрывателями, тогда были огромные производства на дисках.
Здравствуйте! Можно ли мне скачать данный сборник и когда? Спасибо

Страница 1 из 1

new_topic  reply_topic

Текущее время: 27-Окт 04:15
Часовой пояс: GMT + 4

m Сделано с любовью PR-CY.ru Каталог webplus.info