Вход на сайт

Имя:
Пароль:

· Забыли пароль?
logo
Портал Форум
Регистрация Вход


new_topic  reply_topic

  (Pop) Big Hitt 2001, FLAC (image + .cue)

pic
Год выпуска: 2001
Производитель: Эстония
Жанр: Pop
Номер #: REC 0021.2 (Records 2000)
Продолжительность: 1:10:19

Тип издания: сборник
Аудио кодек: FLAC
Тип рипа: (image + .cue)
Битрейт аудио: lossless

Треклист:

  1. Brainstorm - Maybe (album edit)
  2. Gigi d`agostino - Le Serpent (album edit)
  3. Diana Fox - Running On Empty (radio mix)
  4. Ymmie - Get Out Of My Face (radio edit)
  5. Charlotte Nilsson - Miss Jealousy (remix)
  6. Bastiaan Ragas - Only You
  7. Costanzo - L`Italiano
  8. Anaconda - Far Away
  9. DJ Bobo - Hard To Say I`m Sorry (radio)
  10. Dhany - Shut Up
  11. Marco Da Silvia - La Bamba
  12. Kim Lucas - Plain Jane
  13. Jose` - Buonasera Signorina (mambo radio)
  14. Jody Bernal - Que Si, Que No (orig. radio mix)
  15. Dreamgate - Now We Are Free (radio ver)
  16. Romeo - Tell Me (radio mix)
  17. Los Bananas - La Banana (short dance mix)
  18. The Love Bite - Side By Side (extended love mix)
  19. Trix - Bomba Bomba (radio mix)
  20. Silent Circle feat. MMX - Moonlight Affair (maryland mix)

Код:

Exact Audio Copy V0.99 prebeta 5 from 4. May 2009

Отчёт EAC об извлечении, выполненном 25. февраля 2012, 17:00

Various / Big Hitt 2001

Дисковод: TSSTcorpCDDVDW SH-S223B   Adapter: 2  ID: 0

Режим чтения                 : Достоверность
Использование точного потока : Да
Отключение кэша аудио        : Да
Использование указателей C2  : Нет

Коррекция смещения при чтении                     : 6
Способность читать области Lead-in и Lead-out     : Нет
Заполнение пропущенных сэмплов тишиной            : Да
Удаление блоков с тишиной в начале и конце        : Нет
При вычислениях CRC использовались нулевые сэмплы : Да
Интерфейс                                         : Встроенный Win32-интерфейс для Win NT/2000

Выходной формат : Внутренние WAV-операции
Формат сэмплов  : 44.100 Гц; 16 бит; стерео

TOC извлечённого CD

     Трек |   Старт  | Длительность | Начальный сектор | Конечный сектор
    ---------------------------------------------------------------------
       1  |  0:00.00 |    3:56.60   |           0      |      17759     
       2  |  3:56.60 |    3:58.14   |       17760      |      35623     
       3  |  7:54.74 |    2:51.41   |       35624      |      48489     
       4  | 10:46.40 |    2:47.49   |       48490      |      61063     
       5  | 13:34.14 |    3:31.01   |       61064      |      76889     
       6  | 17:05.15 |    3:20.35   |       76890      |      91924     
       7  | 20:25.50 |    3:31.25   |       91925      |     107774     
       8  | 23:57.00 |    3:40.48   |      107775      |     124322     
       9  | 27:37.48 |    3:23.42   |      124323      |     139589     
      10  | 31:01.15 |    3:33.34   |      139590      |     155598     
      11  | 34:34.49 |    3:20.27   |      155599      |     170625     
      12  | 37:55.01 |    3:04.57   |      170626      |     184482     
      13  | 40:59.58 |    3:41.24   |      184483      |     201081     
      14  | 44:41.07 |    3:33.33   |      201082      |     217089     
      15  | 48:14.40 |    3:41.44   |      217090      |     233708     
      16  | 51:56.09 |    4:29.19   |      233709      |     253902     
      17  | 56:25.28 |    3:23.00   |      253903      |     269127     
      18  | 59:48.28 |    3:44.44   |      269128      |     285971     
      19  | 63:32.72 |    2:56.53   |      285972      |     299224     
      20  | 66:29.50 |    3:50.00   |      299225      |     316474     

Характеристики диапазона извлечения и сообщения об ошибках

Выбранный диапазон

     Имя файла M:\Сборники\Big Hitt 2001\Big Hitt 2001.wav

     Подозрительная позиция 1:08:28
     Подозрительная позиция 1:08:30

     Пиковый уровень 100.0 %
     Качество диапазона 99.9 %
     CRC теста C91F43F4
     CRC копии C91F43F4
     Копирование завершено

Были ошибки

 
AccurateRip: сводка
 
Трек  1  нет в базе данных
Трек  2  нет в базе данных
Трек  3  нет в базе данных
Трек  4  нет в базе данных
Трек  5  нет в базе данных
Трек  6  нет в базе данных
Трек  7  нет в базе данных
Трек  8  нет в базе данных
Трек  9  нет в базе данных
Трек 10  нет в базе данных
Трек 11  нет в базе данных
Трек 12  нет в базе данных
Трек 13  нет в базе данных
Трек 14  нет в базе данных
Трек 15  нет в базе данных
Трек 16  нет в базе данных
Трек 17  нет в базе данных
Трек 18  нет в базе данных
Трек 19  нет в базе данных
Трек 20  нет в базе данных
 
Ни одного трека нет в базе AccurateRip

Конец отчёта
Релиз: pic


dimassamid спасибки за хорошую компиляцию, ты как всегда с качеством

Страница 1 из 1

new_topic  reply_topic

Текущее время: 25-Янв 12:29
Часовой пояс: GMT + 4

m Сделано с любовью PR-CY.ru Каталог webplus.info