Вход на сайт

Имя:
Пароль:

· Забыли пароль?
logo
Портал Форум
Регистрация Вход


new_topic  reply_topic

  (Pop) Mark Boyce – All Over The World 1990, FLAC (image + .cue)

pic
Год выпуска: 1990
Страна: Netherlands
Производитель: Epic
Жанр: Pop
Продолжительность: 39:51

Тип издания: альбом
Аудио кодек: FLAC
Тип рипа: (image + .cue)
Битрейт аудио: lossless

Треклист:

1. Hey Little Girl 3:56
2. Lost Romance 3:57
3. All Over The World 3:44
4. Crime Don't Pay 3:09
5. Questa Sera 4:02
6. Classic Story Of Love 4:06
7. Kiss In The Dark 4:01
8. Holding On 4:07
9. Tokyo Girl 3:35
10. Crime Don't Pay (Crime Remix) 5:14

Доп. информация: Отличный и редкий альбом. Раздача специально для MuViTeam.

Код:

Exact Audio Copy V0.99 prebeta 5 from 4. May 2009

Отчёт EAC об извлечении, выполненном 12. апреля 2012, 8:09

Mark Boyce / All over the World

Дисковод: TSSTcorpCDDVDW SH-S222A   Adapter: 1  ID: 0

Режим чтения                 : Достоверность
Использование точного потока : Да
Отключение кэша аудио        : Да
Использование указателей C2  : Нет

Коррекция смещения при чтении                     : 6
Способность читать области Lead-in и Lead-out     : Нет
Заполнение пропущенных сэмплов тишиной            : Да
Удаление блоков с тишиной в начале и конце        : Нет
При вычислениях CRC использовались нулевые сэмплы : Да
Интерфейс                                         : Встроенный Win32-интерфейс для Win NT/2000

Выходной формат : Внутренние WAV-операции
Формат сэмплов  : 44.100 Гц; 16 бит; стерео

TOC извлечённого CD

     Трек |   Старт  | Длительность | Начальный сектор | Конечный сектор
    ---------------------------------------------------------------------
       1  |  0:00.33 |    3:56.12   |          33      |      17744     
       2  |  3:56.45 |    3:57.33   |       17745      |      35552     
       3  |  7:54.03 |    3:43.67   |       35553      |      52344     
       4  | 11:37.70 |    3:08.43   |       52345      |      66487     
       5  | 14:46.38 |    4:01.50   |       66488      |      84612     
       6  | 18:48.13 |    4:06.17   |       84613      |     103079     
       7  | 22:54.30 |    4:00.55   |      103080      |     121134     
       8  | 26:55.10 |    4:06.53   |      121135      |     139637     
       9  | 31:01.63 |    3:35.37   |      139638      |     155799     
      10  | 34:37.25 |    5:14.38   |      155800      |     179387     

Характеристики диапазона извлечения и сообщения об ошибках

Выбранный диапазон

     Имя файла G:\EUROBEAT\Italobeat\Mark Boyce\Mark Boyce - All over the World.wav

     Пиковый уровень 77.6 %
     Качество диапазона 100.0 %
     CRC теста 97BFDCCE
     CRC копии 97BFDCCE
     Копирование... OK

Ошибок не произошло

Конец отчёта
oigo у вас accurat rip отключен
dimka007
Нет не отключен, его в логе просто не видно. accurat rip просто не распознал треков.
Помогите пожалуйста скачать!
помогите докачать пожалуйста !!!

Страница 1 из 1

new_topic  reply_topic

Текущее время: 20-Июн 00:10
Часовой пояс: GMT + 4

m Сделано с любовью PR-CY.ru Каталог webplus.info