Вход на сайт

Имя:
Пароль:

· Забыли пароль?
logo
Портал Форум
Регистрация Вход


new_topic  reply_topic

  (Pop) Союз 20, full - 1997, FLAC (image + .cue)

pic
Год выпуска: 1997
Страна: Россия
Производитель: Швеция
Жанр: Pop
Номер #: SZCD 0777-97 (Студия "СОЮЗ")
Продолжительность: 0:59:23 + 1:02:32

Тип издания: сборник
Аудио кодек: FLAC
Тип рипа: (image + .cue)
Битрейт аудио: lossless

Треклист:

CD1

  1. Сергей Демидович - Любовь
  2. Татьяна Овсиенко - Не забудь
  3. Александр Иванов - Ночь
  4. Владмир Шурочкин - Губы в губы
  5. Диана - Я больше не твоя
  6. Дмитрий Маликов - Одна ты такая
  7. Мурат Насыров - Мальчик хочет в Тамбов
  8. Алла Горбачева - Он и она
  9. Shura - Холодная луна
  10. Лариса Черникова - Тайна
  11. Кай Метов - Дай же мне
  12. Президент и Амазонка - Детская плясовая
  13. Золотое кольцо - На забытом берегу
  14. Белый орёл - Дорогая пропажа
  15. Ляпис Трубецкой - Паренёк


CD2

  1. Арнольд Петросов - Грязнуля
  2. Татьяна Овсиенко - Колечко
  3. Восток - Снежная королева
  4. Виктор Рыбин - Встречай меня
  5. Светлана Рерих - Ночная Москва
  6. Лицей - Паровозик-облачко
  7. Леонид Агутин & Сосо Павлиашвили - Каких-то тысяча лет
  8. Линда - Марихуана
  9. Игорь Мельник - Московский дождь
  10. Филипп Киркоров - Мало
  11. Ника - Это не мой секрет
  12. Александр Шевченко - Будет всё, как ты захочешь
  13. Алена Апина - Между двух берегов
  14. Балаган лимитед - Чё те надо?
  15. Лайма Вайкуле & Чай вдвоём - Прощай

Код:

Exact Audio Copy V0.99 prebeta 5 from 4. May 2009

Отчёт EAC об извлечении, выполненном 1. июля 2012, 15:01

Various / Союз-20. CD1

Дисковод: TSSTcorpCDDVDW SH-S223B   Adapter: 2  ID: 0

Режим чтения                 : Достоверность
Использование точного потока : Да
Отключение кэша аудио        : Да
Использование указателей C2  : Нет

Коррекция смещения при чтении                     : 6
Способность читать области Lead-in и Lead-out     : Нет
Заполнение пропущенных сэмплов тишиной            : Да
Удаление блоков с тишиной в начале и конце        : Нет
При вычислениях CRC использовались нулевые сэмплы : Да
Интерфейс                                         : Встроенный Win32-интерфейс для Win NT/2000

Выходной формат : Внутренние WAV-операции
Формат сэмплов  : 44.100 Гц; 16 бит; стерео

TOC извлечённого CD

     Трек |   Старт  | Длительность | Начальный сектор | Конечный сектор
    ---------------------------------------------------------------------
       1  |  0:00.10 |    4:13.25   |          10      |      19009     
       2  |  4:13.35 |    3:29.12   |       19010      |      34696     
       3  |  7:42.47 |    3:54.23   |       34697      |      52269     
       4  | 11:36.70 |    5:23.70   |       52270      |      76564     
       5  | 17:00.65 |    3:44.67   |       76565      |      93431     
       6  | 20:45.57 |    4:31.23   |       93432      |     113779     
       7  | 25:17.05 |    3:37.12   |      113780      |     130066     
       8  | 28:54.17 |    4:14.38   |      130067      |     149154     
       9  | 33:08.55 |    4:00.65   |      149155      |     167219     
      10  | 37:09.45 |    3:56.25   |      167220      |     184944     
      11  | 41:05.70 |    3:32.45   |      184945      |     200889     
      12  | 44:38.40 |    3:45.05   |      200890      |     217769     
      13  | 48:23.45 |    3:13.25   |      217770      |     232269     
      14  | 51:36.70 |    3:39.05   |      232270      |     248699     
      15  | 55:16.00 |    4:07.50   |      248700      |     267274     

Характеристики диапазона извлечения и сообщения об ошибках

Выбранный диапазон

     Имя файла M:\Сборники\Сборники СОЮЗ\Союз-20 (1997) lossless, full\CD1\Союз-20. CD1.wav

     Пиковый уровень 97.7 %
     Качество диапазона 100.0 %
     CRC теста 9826F5A4
     CRC копии 9826F5A4
     Копирование... OK

Ошибок не произошло

 
AccurateRip: сводка
 
Трек  1  точность не определена (достоверность 1)  [F7E436D5], AccurateRip вернул [BFF26F6B]
Трек  2  точность не определена (достоверность 1)  [C9B26B7B], AccurateRip вернул [A207AB45]
Трек  3  точность не определена (достоверность 1)  [714C21B8], AccurateRip вернул [A24BA396]
Трек  4  точность не определена (достоверность 1)  [4393CFF6], AccurateRip вернул [F9C4CEFC]
Трек  5  точность не определена (достоверность 1)  [6E477B41], AccurateRip вернул [1B5023A3]
Трек  6  точность не определена (достоверность 1)  [87FB7195], AccurateRip вернул [FAD30313]
Трек  7  точность не определена (достоверность 1)  [5D5F82FF], AccurateRip вернул [8E662EEF]
Трек  8  точность не определена (достоверность 1)  [7D7ACDD2], AccurateRip вернул [5F951C90]
Трек  9  точность не определена (достоверность 1)  [6C0B1F08], AccurateRip вернул [26FBFD66]
Трек 10  точность не определена (достоверность 1)  [823AD0B8], AccurateRip вернул [DED8B956]
Трек 11  точность не определена (достоверность 1)  [8CAB0AA4], AccurateRip вернул [CC95963E]
Трек 12  точность не определена (достоверность 1)  [67436A4E], AccurateRip вернул [84D5806E]
Трек 13  точность не определена (достоверность 1)  [3897668B], AccurateRip вернул [54FCE55D]
Трек 14  точность не определена (достоверность 1)  [980CFE5E], AccurateRip вернул [EE8CD834]
Трек 15  точность не определена (достоверность 1)  [0566422F], AccurateRip вернул [1B69AA4D]
 
Ни один трек не прошёл проверки на точность
В вашей базе может быть иной вариант штамповки диска

Конец отчёта

Код:

Exact Audio Copy V0.99 prebeta 5 from 4. May 2009

Отчёт EAC об извлечении, выполненном 4. июля 2012, 16:32

Various / Союз-20. CD2

Дисковод: TSSTcorpCDDVDW SH-S223B   Adapter: 2  ID: 0

Режим чтения                 : Достоверность
Использование точного потока : Да
Отключение кэша аудио        : Да
Использование указателей C2  : Нет

Коррекция смещения при чтении                     : 6
Способность читать области Lead-in и Lead-out     : Нет
Заполнение пропущенных сэмплов тишиной            : Да
Удаление блоков с тишиной в начале и конце        : Нет
При вычислениях CRC использовались нулевые сэмплы : Да
Интерфейс                                         : Встроенный Win32-интерфейс для Win NT/2000

Выходной формат : Внутренние WAV-операции
Формат сэмплов  : 44.100 Гц; 16 бит; стерео

TOC извлечённого CD

     Трек |   Старт  | Длительность | Начальный сектор | Конечный сектор
    ---------------------------------------------------------------------
       1  |  0:00.10 |    4:59.05   |          10      |      22439     
       2  |  4:59.15 |    3:19.12   |       22440      |      37376     
       3  |  8:18.27 |    3:40.60   |       37377      |      53936     
       4  | 11:59.12 |    4:03.58   |       53937      |      72219     
       5  | 16:02.70 |    3:35.17   |       72220      |      88361     
       6  | 19:38.12 |    3:46.53   |       88362      |     105364     
       7  | 23:24.65 |    5:14.00   |      105365      |     128914     
       8  | 28:38.65 |    5:36.25   |      128915      |     154139     
       9  | 34:15.15 |    3:45.10   |      154140      |     171024     
      10  | 38:00.25 |    4:40.55   |      171025      |     192079     
      11  | 42:41.05 |    3:08.37   |      192080      |     206216     
      12  | 45:49.42 |    5:02.08   |      206217      |     228874     
      13  | 50:51.50 |    3:06.42   |      228875      |     242866     
      14  | 53:58.17 |    3:55.65   |      242867      |     260556     
      15  | 57:54.07 |    4:38.38   |      260557      |     281444     

Характеристики диапазона извлечения и сообщения об ошибках

Выбранный диапазон

     Имя файла M:\Сборники\Сборники СОЮЗ\Союз-20 (1997) lossless, full\CD2\Союз-20. CD2.wav

     Пиковый уровень 98.8 %
     Качество диапазона 100.0 %
     CRC теста D7A6DC3A
     CRC копии D7A6DC3A
     Копирование... OK

Ошибок не произошло

   
 AccurateRip: сводка
   
 Трек  1  нет в базе данных
 Трек  2  нет в базе данных
 Трек  3  нет в базе данных
 Трек  4  нет в базе данных
 Трек  5  нет в базе данных
 Трек  6  нет в базе данных
 Трек  7  нет в базе данных
 Трек  8  нет в базе данных
 Трек  9  нет в базе данных
 Трек 10  нет в базе данных
 Трек 11  нет в базе данных
 Трек 12  нет в базе данных
 Трек 13  нет в базе данных
 Трек 14  нет в базе данных
 Трек 15  нет в базе данных
   
 Ни одного трека нет в базе AccurateRip

 Конец отчёта
Релиз: pic


Страница 1 из 1

new_topic  reply_topic

Текущее время: 27-Окт 04:21
Часовой пояс: GMT + 4

m Сделано с любовью PR-CY.ru Каталог webplus.info