Вход на сайт

Имя:
Пароль:

· Забыли пароль?
logo
Портал Форум
Регистрация Вход


new_topic  reply_topic

  (Italodance) Various – Gam Gam Christmas 1994, FLAC (image + .cue)

pic
Год выпуска: 1994
Страна: Интернационал
Производитель: Италия
Жанр: Italodance
Номер #: CD/VOL 002 [Volumex]
Продолжительность: ~ 58 минут

Тип издания: сборник
Аудио кодек: FLAC
Тип рипа: (image + .cue)
Битрейт аудио: lossless


Треклист:

01. Gam Gam – Happy Day
02. Mauro Pilato & Max Monti – Gam Gam (1995 Remix)
03. Kina – Strange Love
04. Indiana – All I Need Is Love
05. Marvellous Melodicos – The Sun And The Moon
06. Scooter – Hyper Hyper
07. Cabballero – Hymn (Remix)
08. Nikita – La Bruja
09. Ice Mc – It's A Rainy Day (Christmas Remix)
10. Gam Gam – Happy Christmas
11. Fargetta – This Time (Sexy Night)
12. New Atlantic – Sunshine After The Rain
13. Miura – Insensitive
14. Netzwerk – Passion
15. The Dog – Come On Let's Go
16. Clone – Pump
17. Trivial Voice – Anything For You
18. Iskhon – Harekrishna

Код:

Exact Audio Copy V0.99 prebeta 5 from 4. May 2009

Отчёт EAC об извлечении, выполненном 13. сентября 2012, 18:45

Various / Gam Gam Christmas

Дисковод: PLEXTOR DVDR   PX-800A   Adapter: 0  ID: 0

Режим чтения                 : Достоверность
Использование точного потока : Да
Отключение кэша аудио        : Да
Использование указателей C2  : Нет

Коррекция смещения при чтении                     : 48
Способность читать области Lead-in и Lead-out     : Нет
Заполнение пропущенных сэмплов тишиной            : Да
Удаление блоков с тишиной в начале и конце        : Нет
При вычислениях CRC использовались нулевые сэмплы : Да
Интерфейс                                         : Встроенный Win32-интерфейс для Win NT/2000

Выходной формат : Внутренние WAV-операции
Формат сэмплов  : 44.100 Гц; 16 бит; стерео

TOC извлечённого CD

     Трек |   Старт  | Длительность | Начальный сектор | Конечный сектор
    ---------------------------------------------------------------------
       1  |  0:00.00 |    5:00.65   |           0      |      22564     
       2  |  5:00.65 |    2:50.40   |       22565      |      35354     
       3  |  7:51.30 |    2:26.15   |       35355      |      46319     
       4  | 10:17.45 |    3:39.48   |       46320      |      62792     
       5  | 13:57.18 |    2:33.17   |       62793      |      74284     
       6  | 16:30.35 |    2:55.30   |       74285      |      87439     
       7  | 19:25.65 |    2:24.08   |       87440      |      98247     
       8  | 21:49.73 |    4:16.25   |       98248      |     117472     
       9  | 26:06.23 |    3:15.40   |      117473      |     132137     
      10  | 29:21.63 |    3:49.57   |      132138      |     149369     
      11  | 33:11.45 |    3:42.10   |      149370      |     166029     
      12  | 36:53.55 |    2:51.00   |      166030      |     178854     
      13  | 39:44.55 |    2:54.55   |      178855      |     191959     
      14  | 42:39.35 |    2:05.55   |      191960      |     201389     
      15  | 44:45.15 |    1:57.40   |      201390      |     210204     
      16  | 46:42.55 |    2:29.20   |      210205      |     221399     
      17  | 49:12.00 |    2:59.65   |      221400      |     234889     
      18  | 52:11.65 |    4:57.20   |      234890      |     257184     

Характеристики диапазона извлечения и сообщения об ошибках

Выбранный диапазон

     Имя файла C:\Temp\Образы\Various - Gam Gam Christmas.wav

     Пиковый уровень 92.4 %
     Качество диапазона 100.0 %
     CRC теста 84C56365
     CRC копии 84C56365
     Копирование... OK

Ошибок не произошло

 
AccurateRip: сводка
 
Трек  1  нет в базе данных
Трек  2  нет в базе данных
Трек  3  нет в базе данных
Трек  4  нет в базе данных
Трек  5  нет в базе данных
Трек  6  нет в базе данных
Трек  7  нет в базе данных
Трек  8  нет в базе данных
Трек  9  нет в базе данных
Трек 10  нет в базе данных
Трек 11  нет в базе данных
Трек 12  нет в базе данных
Трек 13  нет в базе данных
Трек 14  нет в базе данных
Трек 15  нет в базе данных
Трек 16  нет в базе данных
Трек 17  нет в базе данных
Трек 18  нет в базе данных
 
Ни одного трека нет в базе AccurateRip

Конец отчёта

Страница 1 из 1

new_topic  reply_topic

Текущее время: 25-Янв 11:24
Часовой пояс: GMT + 4

m Сделано с любовью PR-CY.ru Каталог webplus.info