Вход на сайт

Имя:
Пароль:

· Забыли пароль?
logo
Портал Форум
Регистрация Вход


new_topic  reply_topic

  (Dance) DJ COLLECTION 6 1997, FLAC tracks

pic
Год выпуска: 1997
Страна: -
Производитель: ZYX (вроде как)
Жанр: Dance
Номер #: -
Продолжительность: 74:01

Тип издания: сборник
Аудио кодек: FLAC
Тип рипа: tracks
Битрейт аудио: lossless

Треклист:

AQUA - Barbie Girl (3:16)
HEATH HUNTER & THE PLEASURE COMPANY - Mambo (3:27)
HADDAWAY - What About Me (4:08)
UPRISING - Sing Aloha He (3:14)
BACKSTREET BOYS - Everybody (Backstreet's Back) (3:45)
SEX APPEAL - Life Goes Up-Life Goes Down (3:28)
DAISY DEE - Hey You (Open Up Your Mind) (4:00)
TONY SCOTT - Please Don't Go (3:56)
NANA - He's Comin (3:58)
ALEXIA - Uh La La La (3:45)
GINUWINE - When Doves Cry (3:47)
ERROL DUNKLEY - O.K. Fred (3:28)
MR.PRESIDENT - Happy People (3:12)
WILL SMITH - Men In Black (3:49)
2 TOGETHER - Summertime (Is Here...) (3:43)
LA FUERTEZZA - 2 The Night (3:30)
JOHHNY O - Fantasy Girl '97 (3:50)
JAN PETER - You Make Me Feel (4:15)
DR. ALBAN - It's My Life '97 (3:50)
MYSTERIO - Vamos (3:40)

Доп. информация: Сканы обложек и самого диска сделаны с разрешением 600 dpi + скан матрицы диска + фото самого диска.

Код:

Exact Audio Copy V1.0 beta 2 from 29. April 2011

Отчёт EAC об извлечении, выполненном 10. августа 2012, 16:44

D.J. COLLECTION 6 / -

Дисковод: ASUS    DRW-2014L1T   Adapter: 4  ID: 0

Режим чтения                 : Достоверность
Использование точного потока : Да
Отключение кэша аудио        : Да
Использование указателей C2  : Нет

Коррекция смещения при чтении                     : 6
Способность читать области Lead-in и Lead-out     : Нет
Заполнение пропущенных сэмплов тишиной            : Да
Удаление блоков с тишиной в начале и конце        : Нет
При вычислениях CRC использовались нулевые сэмплы : Да
Интерфейс                                         : Встроенный Win32-интерфейс для Win NT/2000
Обработка зазоров                                 : Добавлено к предыдущему треку

Выходной формат          : Пользовательский кодировщик
Выбранный битрейт        : 1024 kBit/s
Качество                 : Высокий
Добавление ID3-тега      : Нет
Утилита сжатия           : C:\Program Files\Exact Audio Copy\FLAC\FLAC.EXE
Дополнительные параметры : -6 -V -T "ARTIST=%artist%" -T "TITLE=%title%" -T "ALBUM=%albumtitle%" -T "DATE=%year%" -T "TRACKNUMBER=%tracknr%" -T "GENRE=%genre%" -T "COMMENT=%comment%" -T "BAND=%albuminterpret%" -T "COMPOSER=%composer%" %haslyrics%--tag-from-

TOC извлечённого CD

     Трек |   Старт  | Длительность | Начальный сектор | Конечный сектор
    ---------------------------------------------------------------------
       1  |  0:00.00 |    3:15.26   |           0      |      14650     
       2  |  3:15.26 |    3:26.21   |       14651      |      30121     
       3  |  6:41.47 |    4:07.52   |       30122      |      48698     
       4  | 10:49.24 |    3:14.55   |       48699      |      63303     
       5  | 14:04.04 |    3:44.36   |       63304      |      80139     
       6  | 17:48.40 |    3:28.24   |       80140      |      95763     
       7  | 21:16.64 |    3:59.03   |       95764      |     113691     
       8  | 25:15.67 |    3:56.04   |      113692      |     131395     
       9  | 29:11.71 |    3:56.01   |      131396      |     149096     
      10  | 33:07.72 |    3:44.28   |      149097      |     165924     
      11  | 36:52.25 |    3:47.56   |      165925      |     183005     
      12  | 40:40.06 |    3:27.03   |      183006      |     198533     
      13  | 44:07.09 |    3:13.07   |      198534      |     213015     
      14  | 47:20.16 |    3:48.18   |      213016      |     230133     
      15  | 51:08.34 |    3:42.24   |      230134      |     246807     
      16  | 54:50.58 |    3:31.04   |      246808      |     262636     
      17  | 58:21.62 |    3:50.02   |      262637      |     279888     
      18  | 62:11.64 |    4:13.31   |      279889      |     298894     
      19  | 66:25.20 |    3:50.15   |      298895      |     316159     
      20  | 70:15.35 |    3:39.59   |      316160      |     332643     

Трек  1

     Имя файла E:\This EAC has made Federal\D.J. COLLECTION 6 - AQUA - Barbie Girl.wav

     Длина предзазора  0:00:02.00

     Пиковый уровень 100.0 %
     Скорость извлечения 5.5 X
     Качество трека 100.0 %
     CRC теста 73E5C7AB
     CRC копии 73E5C7AB
     Трек не обнаружен в базе AccurateRip
     Копирование... OK

Трек  2

     Имя файла E:\This EAC has made Federal\D.J. COLLECTION 6 - HEATH HUNTER & THE PLEASURE COMPANY - Mambo.wav

     Длина предзазора  0:00:00.74

     Пиковый уровень 100.0 %
     Скорость извлечения 5.9 X
     Качество трека 100.0 %
     CRC теста 9AD29C21
     CRC копии 9AD29C21
     Трек не обнаружен в базе AccurateRip
     Копирование... OK

Трек  3

     Имя файла E:\This EAC has made Federal\D.J. COLLECTION 6 - HADDAWAY - What About Me.wav

     Длина предзазора  0:00:00.74

     Пиковый уровень 98.4 %
     Скорость извлечения 6.6 X
     Качество трека 100.0 %
     CRC теста 4F6B4CC2
     CRC копии 4F6B4CC2
     Трек не обнаружен в базе AccurateRip
     Копирование... OK

Трек  4

     Имя файла E:\This EAC has made Federal\D.J. COLLECTION 6 - UPRISING - Sing Aloha He.wav

     Длина предзазора  0:00:00.74

     Пиковый уровень 95.6 %
     Скорость извлечения 6.7 X
     Качество трека 100.0 %
     CRC теста 2B3AF2D9
     CRC копии 2B3AF2D9
     Трек не обнаружен в базе AccurateRip
     Копирование... OK

Трек  5

     Имя файла E:\This EAC has made Federal\D.J. COLLECTION 6 - BACKSTREET BOYS - Everybody (Backstreet's Back).wav

     Длина предзазора  0:00:00.74

     Пиковый уровень 98.6 %
     Скорость извлечения 7.2 X
     Качество трека 100.0 %
     CRC теста 1D713787
     CRC копии 1D713787
     Трек не обнаружен в базе AccurateRip
     Копирование... OK

Трек  6

     Имя файла E:\This EAC has made Federal\D.J. COLLECTION 6 - SEX APPEAL - Life Goes Up-Life Goes Down.wav

     Длина предзазора  0:00:00.74

     Пиковый уровень 98.8 %
     Скорость извлечения 7.4 X
     Качество трека 100.0 %
     CRC теста 698E6D72
     CRC копии 698E6D72
     Трек не обнаружен в базе AccurateRip
     Копирование... OK

Трек  7

     Имя файла E:\This EAC has made Federal\D.J. COLLECTION 6 - DAISY DEE - Hey You (Open Up Your Mind).wav

     Длина предзазора  0:00:00.74

     Пиковый уровень 100.0 %
     Скорость извлечения 6.0 X
     Качество трека 99.9 %
     CRC теста 2BC364A0
     CRC копии 2BC364A0
     Трек не обнаружен в базе AccurateRip
     Копирование... OK

Трек  8

     Имя файла E:\This EAC has made Federal\D.J. COLLECTION 6 - TONY SCOTT - Please Don't Go.wav

     Длина предзазора  0:00:00.74

     Пиковый уровень 100.0 %
     Скорость извлечения 6.1 X
     Качество трека 99.9 %
     CRC теста 3EF113B8
     CRC копии 3EF113B8
     Трек не обнаружен в базе AccurateRip
     Копирование... OK

Трек  9

     Имя файла E:\This EAC has made Federal\D.J. COLLECTION 6 - NANA - He's Comin.wav

     Длина предзазора  0:00:00.74

     Пиковый уровень 99.9 %
     Скорость извлечения 6.4 X
     Качество трека 99.9 %
     CRC теста 3D87F2EF
     CRC копии 3D87F2EF
     Трек не обнаружен в базе AccurateRip
     Копирование... OK

Трек 10

     Имя файла E:\This EAC has made Federal\D.J. COLLECTION 6 - ALEXIA - Uh La La La.wav

     Длина предзазора  0:00:00.74

     Пиковый уровень 97.7 %
     Скорость извлечения 8.9 X
     Качество трека 100.0 %
     CRC теста 6C1BE390
     CRC копии 6C1BE390
     Трек не обнаружен в базе AccurateRip
     Копирование... OK

Трек 11

     Имя файла E:\This EAC has made Federal\D.J. COLLECTION 6 - GINUWINE - When Doves Cry.wav

     Длина предзазора  0:00:00.74

     Пиковый уровень 82.2 %
     Скорость извлечения 6.8 X
     Качество трека 99.9 %
     CRC теста D92A5969
     CRC копии D92A5969
     Трек не обнаружен в базе AccurateRip
     Копирование... OK

Трек 12

     Имя файла E:\This EAC has made Federal\D.J. COLLECTION 6 - ERROL DUNKLEY - O.K. Fred.wav

     Длина предзазора  0:00:00.74

     Пиковый уровень 99.9 %
     Скорость извлечения 9.2 X
     Качество трека 100.0 %
     CRC теста B7D90005
     CRC копии B7D90005
     Трек не обнаружен в базе AccurateRip
     Копирование... OK

Трек 13

     Имя файла E:\This EAC has made Federal\D.J. COLLECTION 6 - MR.PRESIDENT - Happy People.wav

     Длина предзазора  0:00:00.74

     Пиковый уровень 79.1 %
     Скорость извлечения 9.3 X
     Качество трека 100.0 %
     CRC теста 82097A9B
     CRC копии 82097A9B
     Трек не обнаружен в базе AccurateRip
     Копирование... OK

Трек 14

     Имя файла E:\This EAC has made Federal\D.J. COLLECTION 6 - WILL SMITH - Men In Black.wav

     Длина предзазора  0:00:00.74

     Пиковый уровень 97.7 %
     Скорость извлечения 10.0 X
     Качество трека 100.0 %
     CRC теста 0E15E5BA
     CRC копии 0E15E5BA
     Трек не обнаружен в базе AccurateRip
     Копирование... OK

Трек 15

     Имя файла E:\This EAC has made Federal\D.J. COLLECTION 6 - 2 TOGETHER - Summertime (Is Here...).wav

     Длина предзазора  0:00:00.74

     Пиковый уровень 94.9 %
     Скорость извлечения 10.1 X
     Качество трека 100.0 %
     CRC теста 2F4C341A
     CRC копии 2F4C341A
     Трек не обнаружен в базе AccurateRip
     Копирование... OK

Трек 16

     Имя файла E:\This EAC has made Federal\D.J. COLLECTION 6 - LA FUERTEZZA - 2 The Night.wav

     Длина предзазора  0:00:00.74

     Пиковый уровень 97.7 %
     Скорость извлечения 10.3 X
     Качество трека 100.0 %
     CRC теста 7905C98C
     CRC копии 7905C98C
     Трек не обнаружен в базе AccurateRip
     Копирование... OK

Трек 17

     Имя файла E:\This EAC has made Federal\D.J. COLLECTION 6 - JOHHNY O - Fantasy Girl '97.wav

     Длина предзазора  0:00:00.74

     Пиковый уровень 94.9 %
     Скорость извлечения 10.6 X
     Качество трека 100.0 %
     CRC теста F45597DE
     CRC копии F45597DE
     Трек не обнаружен в базе AccurateRip
     Копирование... OK

Трек 18

     Имя файла E:\This EAC has made Federal\D.J. COLLECTION 6 - JAN PETER - You Make Me Feel.wav

     Длина предзазора  0:00:00.74

     Пиковый уровень 99.9 %
     Скорость извлечения 11.0 X
     Качество трека 100.0 %
     CRC теста 016FC844
     CRC копии 016FC844
     Трек не обнаружен в базе AccurateRip
     Копирование... OK

Трек 19

     Имя файла E:\This EAC has made Federal\D.J. COLLECTION 6 - DR. ALBAN - It's My Life '97.wav

     Длина предзазора  0:00:00.74

     Пиковый уровень 99.0 %
     Скорость извлечения 11.1 X
     Качество трека 100.0 %
     CRC теста E0AE6A93
     CRC копии E0AE6A93
     Трек не обнаружен в базе AccurateRip
     Копирование... OK

Трек 20

     Имя файла E:\This EAC has made Federal\D.J. COLLECTION 6 - MYSTERIO - Vamos.wav

     Длина предзазора  0:00:00.74

     Пиковый уровень 100.0 %
     Скорость извлечения 8.4 X
     Качество трека 99.9 %
     CRC теста C5FB16AE
     CRC копии C5FB16AE
     Трек не обнаружен в базе AccurateRip
     Копирование... OK

Ни одного трека нет в базе AccurateRip

Ошибок не произошло

Конец отчёта
На дискогсе такого диска нет!

Гипер рар!

Для меломанов!

Страница 1 из 1

new_topic  reply_topic

Текущее время: 25-Янв 11:32
Часовой пояс: GMT + 4

m Сделано с любовью PR-CY.ru Каталог webplus.info