Вход на сайт

Имя:
Пароль:

· Забыли пароль?
logo
Портал Форум
Регистрация Вход


new_topic  reply_topic

  (Pop) Союз 19, full - 1997, FLAC (image + .cue)

pic
Год выпуска: 1997
Страна: Россия
Жанр: Pop
Номер #: SZCD 0721-97 (Студия "СОЮЗ")
Продолжительность: 0:49:55 + 0:49:28

Тип издания: сборник
Аудио кодек: FLAC
Тип рипа: (image + .cue)
Битрейт аудио: lossless

Треклист:

CD1
  1. Восток - До встречи
  2. Алена Апина - Электричка
  3. Профессор Лебединский - Я убью тебя, лодочник
  4. Рок-острова - Ничего не говори
  5. Ника - Бумажные цветы
  6. Светлана Рерих - Аленький цветочек
  7. Владимир Пресняков - Обмани меня
  8. Николай Трубач - Пять минут
  9. Алиса Мон - Алмаз
  10. М.Б. - Аэропланы
  11. Азиза - Все или ничего
  12. Александр Иванов - Боже, какой пустяк


CD2
  1. Владимир Пресняков - Черное море
  2. 3 In A House - Борис Ельцин
  3. Анжелика Варум - Зимняя вишня
  4. Вячеслав Быков - Любимая моя
  5. Дюна - Алка-фиалка
  6. Александр Айвазов - Время-река
  7. Mr. Credo - HSH Bola
  8. Президент и Амазонка - Жу-жу
  9. Татьяна Овсиенко - За розовым морем
  10. Виктор Королев - Три недели
  11. Ляпис-Трубецкой - Ау-ау
  12. Борис Гребенщиков - Темная ночь

Код:

Exact Audio Copy V0.99 prebeta 5 from 4. May 2009

Отчёт EAC об извлечении, выполненном 19. октября 2012, 23:30

Various / Союз-19. CD1

Дисковод: TSSTcorpCDDVDW SH-S223B   Adapter: 2  ID: 0

Режим чтения                 : Достоверность
Использование точного потока : Да
Отключение кэша аудио        : Да
Использование указателей C2  : Нет

Коррекция смещения при чтении                     : 6
Способность читать области Lead-in и Lead-out     : Нет
Заполнение пропущенных сэмплов тишиной            : Да
Удаление блоков с тишиной в начале и конце        : Нет
При вычислениях CRC использовались нулевые сэмплы : Да
Интерфейс                                         : Встроенный Win32-интерфейс для Win NT/2000

Выходной формат : Внутренние WAV-операции
Формат сэмплов  : 44.100 Гц; 16 бит; стерео

TOC извлечённого CD

     Трек |   Старт  | Длительность | Начальный сектор | Конечный сектор
    ---------------------------------------------------------------------
       1  |  0:00.10 |    3:43.00   |          10      |      16734     
       2  |  3:43.10 |    4:33.40   |       16735      |      37249     
       3  |  8:16.50 |    5:31.70   |       37250      |      62144     
       4  | 13:48.45 |    4:21.15   |       62145      |      81734     
       5  | 18:09.60 |    2:58.47   |       81735      |      95131     
       6  | 21:08.32 |    2:53.25   |       95132      |     108131     
       7  | 24:01.57 |    5:25.50   |      108132      |     132556     
       8  | 29:27.32 |    3:51.50   |      132557      |     149931     
       9  | 33:19.07 |    3:36.58   |      149932      |     166189     
      10  | 36:55.65 |    3:25.05   |      166190      |     181569     
      11  | 40:20.70 |    4:09.42   |      181570      |     200286     
      12  | 44:30.37 |    5:24.68   |      200287      |     224654     

Характеристики диапазона извлечения и сообщения об ошибках

Выбранный диапазон

     Имя файла K:\Русские сборники\Сборники СОЮЗ\Союз-19 (1997) lossless, full\CD1\Союз-19. CD1.wav

     Пиковый уровень 99.9 %
     Качество диапазона 100.0 %
     CRC теста FDE9487E
     CRC копии FDE9487E
     Копирование... OK

Ошибок не произошло

 
AccurateRip: сводка
 
Трек  1  точное извлечение (доверие 1)  [D530CDE1]
Трек  2  точное извлечение (доверие 1)  [71130D4A]
Трек  3  точное извлечение (доверие 1)  [93A8B5C8]
Трек  4  точное извлечение (доверие 1)  [C96F073E]
Трек  5  точное извлечение (доверие 1)  [81E5C89D]
Трек  6  точное извлечение (доверие 1)  [062E0D53]
Трек  7  точное извлечение (доверие 1)  [15C1E57D]
Трек  8  точное извлечение (доверие 1)  [1A15697F]
Трек  9  точное извлечение (доверие 1)  [1C66215C]
Трек 10  точное извлечение (доверие 1)  [6E98CD5E]
Трек 11  точное извлечение (доверие 1)  [2E1ACFF2]
Трек 12  точное извлечение (доверие 1)  [EE826057]
 
Все треки извлечены точно

Конец отчёта

Код:

Exact Audio Copy V0.99 prebeta 5 from 4. May 2009

Отчёт EAC об извлечении, выполненном 20. октября 2012, 0:43

Various / Союз-19 CD2

Дисковод: TSSTcorpCDDVDW SH-S223B   Adapter: 2  ID: 0

Режим чтения                 : Достоверность
Использование точного потока : Да
Отключение кэша аудио        : Да
Использование указателей C2  : Нет

Коррекция смещения при чтении                     : 6
Способность читать области Lead-in и Lead-out     : Нет
Заполнение пропущенных сэмплов тишиной            : Да
Удаление блоков с тишиной в начале и конце        : Нет
При вычислениях CRC использовались нулевые сэмплы : Да
Интерфейс                                         : Встроенный Win32-интерфейс для Win NT/2000

Выходной формат : Внутренние WAV-операции
Формат сэмплов  : 44.100 Гц; 16 бит; стерео

TOC извлечённого CD

     Трек |   Старт  | Длительность | Начальный сектор | Конечный сектор
    ---------------------------------------------------------------------
       1  |  0:00.10 |    4:45.72   |          10      |      21456     
       2  |  4:46.07 |    4:43.58   |       21457      |      42739     
       3  |  9:29.65 |    4:39.17   |       42740      |      63681     
       4  | 14:09.07 |    4:02.60   |       63682      |      81891     
       5  | 18:11.67 |    3:56.60   |       81892      |      99651     
       6  | 22:08.52 |    3:41.38   |       99652      |     116264     
       7  | 25:50.15 |    5:07.70   |      116265      |     139359     
       8  | 30:58.10 |    3:47.45   |      139360      |     156429     
       9  | 34:45.55 |    3:41.27   |      156430      |     173031     
      10  | 38:27.07 |    3:45.43   |      173032      |     189949     
      11  | 42:12.50 |    3:50.67   |      189950      |     207266     
      12  | 46:03.42 |    3:25.08   |      207267      |     222649     

Характеристики диапазона извлечения и сообщения об ошибках

Выбранный диапазон

     Имя файла K:\Русские сборники\Сборники СОЮЗ\Союз-19 (1997) lossless, full\CD2\Союз-19 CD2.wav

     Пиковый уровень 98.8 %
     Качество диапазона 99.9 %
     CRC теста 07DF9C65
     CRC копии 07DF9C65
     Копирование... OK

Ошибок не произошло

 
AccurateRip: сводка
 
Трек  1  точное извлечение (доверие 1)  [5EDECF4B]
Трек  2  точное извлечение (доверие 1)  [80739BD9]
Трек  3  точное извлечение (доверие 1)  [3FD9F7E0]
Трек  4  точное извлечение (доверие 1)  [D082623F]
Трек  5  точное извлечение (доверие 1)  [1788A3EC]
Трек  6  точное извлечение (доверие 1)  [4C165D6D]
Трек  7  точное извлечение (доверие 1)  [B114202C]
Трек  8  точное извлечение (доверие 1)  [FD5114DF]
Трек  9  точное извлечение (доверие 1)  [3A7F4DB6]
Трек 10  точное извлечение (доверие 1)  [1DE73808]
Трек 11  точное извлечение (доверие 1)  [11278643]
Трек 12  точное извлечение (доверие 1)  [A13B6FEA]
 
Все треки извлечены точно

Конец отчёта
Релиз: pic


Страница 1 из 1

new_topic  reply_topic

Текущее время: 27-Окт 03:42
Часовой пояс: GMT + 4

m Сделано с любовью PR-CY.ru Каталог webplus.info