Вход на сайт

Имя:
Пароль:

· Забыли пароль?
logo
Портал Форум
Регистрация Вход


new_topic  reply_topic

  (Eurodance) 2 UNLIMITED - 4 Albums, 2 Compilations, 2 Singles 1992, 1993, 1994, 1995, FLAC tracks

pic
pic
Год выпуска: 1992
Страна: Belqium
Производитель: Benelux
Жанр: Eurodance
Лейбл - Номер по каталогу: Byte Records – BYTE 5015, ToCo International – 181.122.3
Продолжительность: 00:32:39

Тип издания: сингл
Аудио кодек: FLAC
Тип рипа: tracks
Битрейт аудио: lossless

Rap: Ray Slijngaard
Vocals: Anita Dels

Sony DADC: DADC AUSTRIA
Rights Society: SABAM TM
Stamper Identificator: A1
Matrix Code: BYTE-5015 22

Треклист:

1. The Magic Friend (Vocal Edit) (3:43)
2. The Magic Friend (Instrumental Edit) (3:02)
3. The Magic Friend (Extended Version) (5:14)
4. The Magic Friend (Rio & Le Jean Remix) (5:15)
5. The Magic Friend (Automatic Remix) (4:23)
6. Murphy's Megamix (5:40)
6.1. Get Ready For This
6.2. Twilight Zone
6.3. Workaholic
6.4. The Magic Friend
7. Automatic Megamix (4:55)
7.1. Get Ready For This
7.2. Twilight Zone
7.3. Workaholic
7.4. The Magic Friend

Доп. информация: -
pic
Год выпуска: 1993
Страна: Belqium
Производитель: Italy
Жанр: Eurodance
Лейбл - Номер по каталогу: Got It Records – GTR 593005-2
Продолжительность: 01:00:20

Тип издания: альбом
Аудио кодек: FLAC
Тип рипа: tracks
Битрейт аудио: lossless

Rap: Ray Slijngaard
Vocals: Anita Dels

Rights Society: S I A E
Barcode: 8 012855 005255
Matrix Code: GTR 593005-2 PHC

Треклист:

1. No Limit (3:44)
2. Tribal Dance (4:31)
3. Mysterious (4:23)
4. Faces (3:48)
5. Maximum Overdrive (3:58)
6. The Power Age (3:59)
7. Break The Chain (3:49)
8. Kiss Me Bliss Me (3:52)
9. Throw The Groove Down (4:18)
10. R.U.O.K (4:11)
11. Let The Beat Control Your Body (4:02)
12. Invite Me To Trance (4:07)
13. Where Are You Now (5:01)
14. Shelter For A Rainy Day (5:15)

Доп. информация: .
pic
Год выпуска: 1993
Страна: Belqium
Производитель: Thailand
Жанр: Eurodance
Лейбл - Номер по каталогу: ToCo International – LY-Q318
Продолжительность: 01:00:32

Тип издания: альбом
Аудио кодек: FLAC
Тип рипа: tracks
Битрейт аудио: lossless

Rap: Ray Slijngaard
Vocals: Anita Dels

Треклист:

1. No Limit (3:49)
2. Tribal Dance (4:37)
3. Mysterious (4:28)
4. Faces (3:54)
5. Maximum Overdrive (4:07)
6. The Power Age (4:06)
7. Break The Chain (3:57)
8. Kiss Me Bliss Me (3:58)
9. Throw The Groove Down (4:25)
10. R.U.O.K (4:17)
11. Let The Beat Control Your Body (4:08)
12. Invite Me To Trance (4:14)
13. Where Are You Now (5:07)
14. Shelter For A Rainy Day (5:18)

Доп. информация: В раздачу добавлены отсканированные обложка, диск и матрица диска в 600 dpi.png + фото диска.
pic

Год выпуска: 1993
Страна: Belqium
Производитель: UK
Жанр: Eurodance
Лейбл - Номер по каталогу: PWL Continental – HFCD 27, PWL International Ltd – HFCD27
Продолжительность: 00:55:46

Тип издания: альбом
Аудио кодек: FLAC
Тип рипа: tracks
Битрейт аудио: lossless

Rap: Raymond Slijngaard
Vocals: Anita Dels

Barcode: 5 016919 416028 >
Mould SID Code: 13
Matrix Code: DISCTRONICS S HFCD 27 01

Треклист:

1. No Limit
2. Tribal Dance
3. Mysterious
4. Faces
5. Maximum Overdrive
6. The Power Age
7. Break The Chain
8. Kiss Me Bliss Me
9. Throw The Groove Down
10. R.U.O.K.
11. Let The Beat Control Your Body
12. Invite Me To Trance
13. Where Are You Now
14. Shelter For A Rainy Day

Доп. информация: .
pic
Год выпуска: 1994
Страна: Belqium
Производитель: Germany
Жанр: Eurodance
Лейбл - Номер по каталогу: ZYX Music – ZYX 7187-8
Продолжительность: 00:26:28

Тип издания: сингл
Аудио кодек: FLAC
Тип рипа: tracks
Битрейт аудио: lossless

Rap: Ray Slijngaard
Vocals: Anita Dels

Label Code: LC 6350
Barcode: 0 90204 10824 4
Matrix Code: ZYX7187-8 [A]1
Rights Society: GEMA (Biem Countries)

Disc: black/blue disc

Треклист:

1. Let The Beat Control Your Body (Airplay Edit) (3:38)
2. Let The Beat Control Your Body (X-Out In Trance Remix) (5:11)
3. Let The Beat Control Your Body (Extended) (5:58)
4. Let The Beat Control Your Body (X-Out In Rio) (5:06)
5. Get Ready For No Limits (Murphy's Megamix Part 2) (6:45)
5.1. Faces
5.2. Tribal Dance
5.3. Maximum Overdrive
5.4. Get Ready For This
5.5. No Limit

Доп. информация: В раздачу добавлены отсканированные обложка, диск и матрица диска в 600 dpi.png.
pic
Год выпуска: 1994
Страна: Belqium
Производитель: Hong Kong
Жанр: Eurodance
Лейбл - Номер по каталогу: Polygram – 921346-2, ToCo International - 921 346-2
Продолжительность: 00:57:29

Тип издания: альбом
Аудио кодек: FLAC
Тип рипа: tracks
Битрейт аудио: lossless

Rap: Ray Slijngaard
Vocals: Anita Dels

Matrix Code: SD-A8083

Треклист:

1. The Real Thing (3:40)
2. Do What I Like (4:10)
3. Here I Go (5:13)
4. Burning Like Fire (4:59)
5. Info Superhighway (4:34)
6. Hypnotised (4:24)
7. Tuning Into Something Wild (4:11)
8. Escape In Music (3:55)
9. Sensuality (4:30)
10. No One (3:26)
11. Face To Face (4:05)
12. What's Mine Is Mine (5:00)
13. Nothing Like The Rain (4:39)

Доп. информация: В раздачу добавлены отсканированные обложка, диск и матрица диска в 600 dpi.png + фото диска.
pic
Год выпуска: 1994
Страна: Belqium
Жанр: Eurodance
Лейбл - Номер по каталогу: Not On Label – 4509-96256-2
Продолжительность: 00:59:00

Тип издания: сборник
Аудио кодек: FLAC
Тип рипа: tracks
Битрейт аудио: lossless

Rap: Ray Slijngaard
Vocals: Anita Dels

SPARS Code: DDD
Distribution Code: CB 791
Matrix Code: 4509-96256-2
Rights Society: GEMA, BIEM

Треклист:

1. Real Thing (3:41)
2. No Limit (3:44)
3. Twilight Zone (4:10)
4. Tribal Dance (4:31)
5. Faces (3:48)
6. Maximum Overdrive (3:58)
7. Get Ready For This (3:42)
8. The Magic Friend (4:30)
9. Let The Beat Control Your Body (4:02)
10. R.U.O.K. (4:11)
11. Do What I Like (4:11)
12. Burning Like Fire (4:54)
13. Into Superhighway (4:35)
14. Mysterious (4:23)

Доп. информация: Этот сборник был составлен из песен альбомов "Get Ready!", "No Limits!", "Real Things"! В раздачу добавлены отсканированные обложка, диск и матрица диска в 600 dpi.png + фото диска.
pic
Год выпуска: 1995
Страна: Belqium
Жанр: Eurodance
Лейбл - Номер по каталогу: Byte Records – BPCD02, Toco International - BPCD02
Продолжительность: 00:59:00

Тип издания: сборник
Аудио кодек: FLAC
Тип рипа: tracks
Битрейт аудио: lossless

Rap: Ray Slijngaard
Vocals: Anita Dels

Matrix Code: SZ-013

Треклист:

1. Do What's Good For Me (3:49)
2. No Limit (3:30)
3. Get Ready For This (3:42)
4. Twilight Zone (4:10)
5. No One (3:26)
6. Jump For Joy (3:42)
7. Tribal Dance (3:40)
8. The Magic Friend (3:44)
9. Workaholic (3:33)
10. Let The Beat Control Your Body (3:38)
11. Nothing Like The Rain (3:59)
12. Spread Your Love (4:43)
13. The Real Thing (3:39)
14. Here I Go (3:16)
15. Maximum Overdrive (3:41)
16. Faces (3:32)

Доп. информация: В раздачу добавлены отсканированные обложка, диск и матрица диска в 600 dpi.png + фото диска. Так же приложил принтскрины двух файлов (потому что в один принтскрин плейлист не уместился) теста зазоров, так как первый трек имеет предзазор > 2 секунд!

Код:

Exact Audio Copy V1.0 beta 3 from 29. August 2011

Отчёт EAC об извлечении, выполненном 20. апреля 2016, 21:00

2 UNLIMITED / The Magic Friend (Single, Cardboard Sleeve)

Дисковод: ASUS    DRW-2014L1T   Adapter: 2  ID: 0

Режим чтения                 : Достоверность
Использование точного потока : Да
Отключение кэша аудио        : Да
Использование указателей C2  : Нет

Коррекция смещения при чтении                     : 6
Способность читать области Lead-in и Lead-out     : Нет
Заполнение пропущенных сэмплов тишиной            : Да
Удаление блоков с тишиной в начале и конце        : Нет
При вычислениях CRC использовались нулевые сэмплы : Да
Интерфейс                                         : Встроенный Win32-интерфейс для Win NT/2000
Обработка зазоров                                 : Добавлено к предыдущему треку

Выходной формат          : Пользовательский кодировщик
Выбранный битрейт        : 1024 kBit/s
Качество                 : Высокий
Добавление ID3-тега      : Нет
Утилита сжатия           : C:\Program Files\Exact Audio Copy\FLAC\FLAC.EXE
Дополнительные параметры : -6 -V -T "ARTIST=%artist%" -T "TITLE=%title%" -T "ALBUM=%albumtitle%" -T "DATE=%year%" -T "TRACKNUMBER=%tracknr%" -T "GENRE=%genre%" -T "COMMENT=%comment%" -T "BAND=%albuminterpret%" -T "ALBUMARTIST=%albuminterpret%" -T "COMPOSER=%composer%" %haslyrics%--tag-from-file=LYRICS="%lyricsfile%"%haslyrics% -T "DISCNUMBER=%cdnumber%" -T "TOTALDISCS=%totalcds%" -T "TOTALTRACKS=%numtracks%" %hascover%--picture="%coverfile%"%hascover% %source% -o %dest%

TOC извлечённого CD

     Трек |   Старт  | Длительность | Начальный сектор | Конечный сектор
    ---------------------------------------------------------------------
       1  |  0:00.32 |    3:48.60   |          32      |      17191     
       2  |  3:49.17 |    3:06.58   |       17192      |      31199     
       3  |  6:56.00 |    5:18.05   |       31200      |      55054     
       4  | 12:14.05 |    5:18.27   |       55055      |      78931     
       5  | 17:32.32 |    4:27.45   |       78932      |      99001     
       6  | 22:00.02 |    5:43.70   |       99002      |     124796     
       7  | 27:43.72 |    4:56.20   |      124797      |     147016     

Трек  1

     Имя файла E:\This EAC has made Federal\2 UNLIMITED - 1 - The Magic Friend (Vocal Edit).wav

     Длина предзазора  0:00:02.32

     Пиковый уровень 97.7 %
     Скорость извлечения 4.3 X
     Качество трека 100.0 %
     CRC теста F3BB24A4
     CRC копии F3BB24A4
     Точное извлечение (достоверность 10)  [3878D7CA]  (AR v2)
     Копирование... OK

Трек  2

     Имя файла E:\This EAC has made Federal\2 UNLIMITED - 2 - The Magic Friend (Instrumental Edit).wav

     Длина предзазора  0:00:02.50

     Пиковый уровень 97.7 %
     Скорость извлечения 4.5 X
     Качество трека 100.0 %
     CRC теста DC36833B
     CRC копии DC36833B
     Точное извлечение (достоверность 10)  [DEC4881B]  (AR v2)
     Копирование... OK

Трек  3

     Имя файла E:\This EAC has made Federal\2 UNLIMITED - 3 - The Magic Friend (Extended Version).wav

     Длина предзазора  0:00:02.50

     Пиковый уровень 98.3 %
     Скорость извлечения 3.9 X
     Качество трека 99.9 %
     CRC теста 580A866E
     CRC копии 580A866E
     Точное извлечение (достоверность 10)  [C3EBD3E9]  (AR v2)
     Копирование... OK

Трек  4

     Имя файла E:\This EAC has made Federal\2 UNLIMITED - 4 - The Magic Friend (Rio & Le Jean Remix).wav

     Длина предзазора  0:00:02.50

     Пиковый уровень 97.3 %
     Скорость извлечения 4.3 X
     Качество трека 99.9 %
     CRC теста 026B090E
     CRC копии 026B090E
     Точное извлечение (достоверность 10)  [AFD9C104]  (AR v2)
     Копирование... OK

Трек  5

     Имя файла E:\This EAC has made Federal\2 UNLIMITED - 5 - The Magic Friend (Automatic Remix).wav

     Длина предзазора  0:00:02.50

     Пиковый уровень 97.7 %
     Скорость извлечения 4.4 X
     Качество трека 99.9 %
     CRC теста 4EEE6F16
     CRC копии 4EEE6F16
     Точное извлечение (достоверность 10)  [68BDB4E3]  (AR v2)
     Копирование... OK

Трек  6

     Имя файла E:\This EAC has made Federal\2 UNLIMITED - 6 - Murphy's Megamix.wav

     Длина предзазора  0:00:02.50

     Пиковый уровень 98.3 %
     Скорость извлечения 4.9 X
     Качество трека 99.9 %
     CRC теста 54E934C5
     CRC копии 54E934C5
     Точное извлечение (достоверность 10)  [C302EE0B]  (AR v2)
     Копирование... OK

Трек  7

     Имя файла E:\This EAC has made Federal\2 UNLIMITED - 7 - Automatic Megamix.wav

     Длина предзазора  0:00:02.25

     Пиковый уровень 97.7 %
     Скорость извлечения 6.9 X
     Качество трека 100.0 %
     CRC теста B5D6F443
     CRC копии B5D6F443
     Точное извлечение (достоверность 10)  [4BBD5E8A]  (AR v2)
     Копирование... OK

Все треки извлечены точно

Ошибок не произошло

Конец отчёта

==== Контрольная сумма отчёта 41054A91E7754207DEE07F2DA267ED70BE053C44224E0762E84EFBF50EBC3710 ====

Код:

Exact Audio Copy V1.0 beta 3 from 29. August 2011

Отчёт EAC об извлечении, выполненном 20. июля 2017, 1:28

2 UNLIMITED / No Limits! (Album) 1993

Дисковод: ASUS    DRW-2014L1T   Adapter: 2  ID: 0

Режим чтения                 : Достоверность
Использование точного потока : Да
Отключение кэша аудио        : Да
Использование указателей C2  : Нет

Коррекция смещения при чтении                     : 6
Способность читать области Lead-in и Lead-out     : Нет
Заполнение пропущенных сэмплов тишиной            : Да
Удаление блоков с тишиной в начале и конце        : Нет
При вычислениях CRC использовались нулевые сэмплы : Да
Интерфейс                                         : Встроенный Win32-интерфейс для Win NT/2000
Обработка зазоров                                 : Добавлено к предыдущему треку

Выходной формат          : Пользовательский кодировщик
Выбранный битрейт        : 1024 kBit/s
Качество                 : Высокий
Добавление ID3-тега      : Нет
Утилита сжатия           : C:\Program Files\Exact Audio Copy\FLAC\FLAC.EXE
Дополнительные параметры : -6 -V -T "ARTIST=%artist%" -T "TITLE=%title%" -T "ALBUM=%albumtitle%" -T "DATE=%year%" -T "TRACKNUMBER=%tracknr%" -T "GENRE=%genre%" -T "COMMENT=%comment%" -T "BAND=%albuminterpret%" -T "ALBUMARTIST=%albuminterpret%" -T "COMPOSER=%composer%" %haslyrics%--tag-from-file=LYRICS="%lyricsfile%"%haslyrics% -T "DISCNUMBER=%cdnumber%" -T "TOTALDISCS=%totalcds%" -T "TOTALTRACKS=%numtracks%" %hascover%--picture="%coverfile%"%hascover% %source% -o %dest%

TOC извлечённого CD

     Трек |   Старт  | Длительность | Начальный сектор | Конечный сектор
    ---------------------------------------------------------------------
       1  |  0:00.33 |    3:51.25   |          33      |      17382     
       2  |  3:51.58 |    4:36.37   |       17383      |      38119     
       3  |  8:28.20 |    4:27.50   |       38120      |      58194     
       4  | 12:55.70 |    3:53.38   |       58195      |      75707     
       5  | 16:49.33 |    4:03.62   |       75708      |      93994     
       6  | 20:53.20 |    4:05.50   |       93995      |     112419     
       7  | 24:58.70 |    3:55.50   |      112420      |     130094     
       8  | 28:54.45 |    3:58.13   |      130095      |     147957     
       9  | 32:52.58 |    4:24.12   |      147958      |     167769     
      10  | 37:16.70 |    4:18.13   |      167770      |     187132     
      11  | 41:35.08 |    4:06.62   |      187133      |     205644     
      12  | 45:41.70 |    4:12.63   |      205645      |     224607     
      13  | 49:54.58 |    5:08.12   |      224608      |     247719     
      14  | 55:02.70 |    5:18.38   |      247720      |     271607     

Трек  1

     Имя файла E:\This EAC has made Federal\2 UNLIMITED - 1 - No Limit.wav

     Длина предзазора  0:00:02.33

     Пиковый уровень 85.7 %
     Скорость извлечения 5.0 X
     Качество трека 100.0 %
     CRC теста B2A6B33F
     CRC копии B2A6B33F
     Точное извлечение (достоверность 2)  [48216B4A]  (AR v2)
     Копирование... OK

Трек  2

     Имя файла E:\This EAC has made Federal\2 UNLIMITED - 2 - Tribal Dance.wav

     Пиковый уровень 99.9 %
     Скорость извлечения 5.7 X
     Качество трека 100.0 %
     CRC теста D8324FC3
     CRC копии D8324FC3
     Точное извлечение (достоверность 2)  [97E7C70F]  (AR v2)
     Копирование... OK

Трек  3

     Имя файла E:\This EAC has made Federal\2 UNLIMITED - 3 - Mysterious.wav

     Пиковый уровень 94.3 %
     Скорость извлечения 6.3 X
     Качество трека 100.0 %
     CRC теста B9120458
     CRC копии B9120458
     Точное извлечение (достоверность 2)  [02B62D54]  (AR v2)
     Копирование... OK

Трек  4

     Имя файла E:\This EAC has made Federal\2 UNLIMITED - 4 - Faces.wav

     Пиковый уровень 91.5 %
     Скорость извлечения 6.6 X
     Качество трека 100.0 %
     CRC теста 8BE7C1BD
     CRC копии 8BE7C1BD
     Точное извлечение (достоверность 2)  [F7090E9E]  (AR v2)
     Копирование... OK

Трек  5

     Имя файла E:\This EAC has made Federal\2 UNLIMITED - 5 - Maximum Overdrive.wav

     Пиковый уровень 81.8 %
     Скорость извлечения 7.0 X
     Качество трека 100.0 %
     CRC теста 48505938
     CRC копии 48505938
     Точное извлечение (достоверность 2)  [397BFF4D]  (AR v2)
     Копирование... OK

Трек  6

     Имя файла E:\This EAC has made Federal\2 UNLIMITED - 6 - The Power Age.wav

     Пиковый уровень 88.3 %
     Скорость извлечения 5.5 X
     Качество трека 99.9 %
     CRC теста 4DA4A2DA
     CRC копии 4DA4A2DA
     Точное извлечение (достоверность 2)  [7B3ED36B]  (AR v2)
     Копирование... OK

Трек  7

     Имя файла E:\This EAC has made Federal\2 UNLIMITED - 7 - Break The Chain.wav

     Пиковый уровень 98.2 %
     Скорость извлечения 7.7 X
     Качество трека 100.0 %
     CRC теста 65669B8A
     CRC копии 65669B8A
     Точное извлечение (достоверность 2)  [204E983C]  (AR v2)
     Копирование... OK

Трек  8

     Имя файла E:\This EAC has made Federal\2 UNLIMITED - 8 - Kiss Me Bliss Me.wav

     Пиковый уровень 83.8 %
     Скорость извлечения 8.1 X
     Качество трека 100.0 %
     CRC теста F376041A
     CRC копии F376041A
     Точное извлечение (достоверность 2)  [81724056]  (AR v2)
     Копирование... OK

Трек  9

     Имя файла E:\This EAC has made Federal\2 UNLIMITED - 9 - Throw The Groove Down.wav

     Пиковый уровень 80.6 %
     Скорость извлечения 8.5 X
     Качество трека 100.0 %
     CRC теста 37B528F5
     CRC копии 37B528F5
     Точное извлечение (достоверность 2)  [A6D2B38C]  (AR v2)
     Копирование... OK

Трек 10

     Имя файла E:\This EAC has made Federal\2 UNLIMITED - 10 - R.U.O.K..wav

     Пиковый уровень 100.0 %
     Скорость извлечения 8.8 X
     Качество трека 100.0 %
     CRC теста 49198CD3
     CRC копии 49198CD3
     Точное извлечение (достоверность 2)  [A03A8FA9]  (AR v2)
     Копирование... OK

Трек 11

     Имя файла E:\This EAC has made Federal\2 UNLIMITED - 11 - Let The Beat Control Your Body.wav

     Пиковый уровень 96.5 %
     Скорость извлечения 9.1 X
     Качество трека 100.0 %
     CRC теста A56F4E2F
     CRC копии A56F4E2F
     Точное извлечение (достоверность 2)  [EC47CE70]  (AR v2)
     Копирование... OK

Трек 12

     Имя файла E:\This EAC has made Federal\2 UNLIMITED - 12 - Invite Me To Trance.wav

     Пиковый уровень 86.2 %
     Скорость извлечения 9.2 X
     Качество трека 100.0 %
     CRC теста 0E04369E
     CRC копии 0E04369E
     Точное извлечение (достоверность 2)  [D3D33873]  (AR v2)
     Копирование... OK

Трек 13

     Имя файла E:\This EAC has made Federal\2 UNLIMITED - 13 - Where Are You Now.wav

     Пиковый уровень 93.3 %
     Скорость извлечения 9.7 X
     Качество трека 100.0 %
     CRC теста 0DA155FE
     CRC копии 0DA155FE
     Точное извлечение (достоверность 2)  [C99F324C]  (AR v2)
     Копирование... OK

Трек 14

     Имя файла E:\This EAC has made Federal\2 UNLIMITED - 14 - Shelter For A Rainy Day.wav

     Пиковый уровень 88.4 %
     Скорость извлечения 10.2 X
     Качество трека 100.0 %
     CRC теста 3C29DF15
     CRC копии 3C29DF15
     Точное извлечение (достоверность 2)  [A9E1D36F]  (AR v2)
     Копирование... OK

Все треки извлечены точно

Ошибок не произошло

Конец отчёта

==== Контрольная сумма отчёта 1F7FEE056BB23A924EEEAF73300B6806CF10AAC5940012AE8E4F20C7A76C6858 ====

Код:

Exact Audio Copy V1.0 beta 3 from 29. August 2011

Отчёт EAC об извлечении, выполненном 16. мая 2013, 14:01

2 UNLIMITED / No Limits!

Дисковод: ASUS    DRW-2014L1T   Adapter: 4  ID: 0

Режим чтения                 : Достоверность
Использование точного потока : Да
Отключение кэша аудио        : Да
Использование указателей C2  : Нет

Коррекция смещения при чтении                     : 6
Способность читать области Lead-in и Lead-out     : Нет
Заполнение пропущенных сэмплов тишиной            : Да
Удаление блоков с тишиной в начале и конце        : Нет
При вычислениях CRC использовались нулевые сэмплы : Да
Интерфейс                                         : Встроенный Win32-интерфейс для Win NT/2000
Обработка зазоров                                 : Добавлено к предыдущему треку

Выходной формат          : Пользовательский кодировщик
Выбранный битрейт        : 1024 kBit/s
Качество                 : Высокий
Добавление ID3-тега      : Нет
Утилита сжатия           : C:\Program Files\Exact Audio Copy\FLAC\FLAC.EXE
Дополнительные параметры : -6 -V -T "ARTIST=%artist%" -T "TITLE=%title%" -T "ALBUM=%albumtitle%" -T "DATE=%year%" -T "TRACKNUMBER=%tracknr%" -T "GENRE=%genre%" -T "COMMENT=%comment%" -T "BAND=%albuminterpret%" -T "ALBUMARTIST=%albuminterpret%" -T "COMPOSER=%composer%" %haslyrics%--tag-from-file=LYRICS="%lyricsfile%"%haslyrics% -T "DISCNUMBER=%cdnumber%" -T "TOTALDISCS=%totalcds%" -T "TOTALTRACKS=%numtracks%" %hascover%--picture="%coverfile%"%hascover% %source% -o %dest%

TOC извлечённого CD

     Трек |   Старт  | Длительность | Начальный сектор | Конечный сектор
    ---------------------------------------------------------------------
       1  |  0:00.00 |    3:49.50   |           0      |      17224     
       2  |  3:49.50 |    4:37.13   |       17225      |      38012     
       3  |  8:26.63 |    4:28.62   |       38013      |      58174     
       4  | 12:55.50 |    3:54.63   |       58175      |      75787     
       5  | 16:50.38 |    4:07.25   |       75788      |      94337     
       6  | 20:57.63 |    4:06.62   |       94338      |     112849     
       7  | 25:04.50 |    3:57.00   |      112850      |     130624     
       8  | 29:01.50 |    3:58.50   |      130625      |     148524     
       9  | 33:00.25 |    4:25.38   |      148525      |     168437     
      10  | 37:25.63 |    4:17.37   |      168438      |     187749     
      11  | 41:43.25 |    4:08.63   |      187750      |     206412     
      12  | 45:52.13 |    4:14.50   |      206413      |     225512     
      13  | 50:06.63 |    5:07.62   |      225513      |     248599     
      14  | 55:14.50 |    5:18.13   |      248600      |     272462     

Трек  1

     Имя файла E:\This EAC has made Federal\2 UNLIMITED - No Limit.wav

     Длина предзазора  0:00:02.00

     Пиковый уровень 99.4 %
     Скорость извлечения 5.6 X
     Качество трека 100.0 %
     CRC теста 750C5E7F
     CRC копии 750C5E7F
     Точность не определена (достоверность 2)  [59A811E3], AccurateRip вернул [F5690EFF]  (AR v2)
     Копирование... OK

Трек  2

     Имя файла E:\This EAC has made Federal\2 UNLIMITED - Tribal Dance.wav

     Длина предзазора  0:00:03.02

     Пиковый уровень 99.4 %
     Скорость извлечения 6.3 X
     Качество трека 100.0 %
     CRC теста BA564917
     CRC копии BA564917
     Точность не определена (достоверность 2)  [68680AB5], AccurateRip вернул [09FBBEDB]  (AR v2)
     Копирование... OK

Трек  3

     Имя файла E:\This EAC has made Federal\2 UNLIMITED - Mysterious.wav

     Длина предзазора  0:00:03.05

     Пиковый уровень 99.4 %
     Скорость извлечения 6.9 X
     Качество трека 100.0 %
     CRC теста ADCFE799
     CRC копии ADCFE799
     Точность не определена (достоверность 2)  [DA62505A], AccurateRip вернул [860E0D76]  (AR v2)
     Копирование... OK

Трек  4

     Имя файла E:\This EAC has made Federal\2 UNLIMITED - Faces.wav

     Длина предзазора  0:00:02.73

     Пиковый уровень 99.4 %
     Скорость извлечения 7.3 X
     Качество трека 100.0 %
     CRC теста AEB4049B
     CRC копии AEB4049B
     Точность не определена (достоверность 2)  [9D9FD367], AccurateRip вернул [A5983A55]  (AR v2)
     Копирование... OK

Трек  5

     Имя файла E:\This EAC has made Federal\2 UNLIMITED - Maximum Overdrive.wav

     Длина предзазора  0:00:03.02

     Пиковый уровень 99.4 %
     Скорость извлечения 5.7 X
     Качество трека 99.9 %
     CRC теста CDD4B23D
     CRC копии CDD4B23D
     Точность не определена (достоверность 2)  [A96E0A95], AccurateRip вернул [0F4D8F2B]  (AR v2)
     Копирование... OK

Трек  6

     Имя файла E:\This EAC has made Federal\2 UNLIMITED - The Power Age.wav

     Длина предзазора  0:00:02.74

     Пиковый уровень 99.4 %
     Скорость извлечения 8.1 X
     Качество трека 100.0 %
     CRC теста 6AF03CAC
     CRC копии 6AF03CAC
     Точность не определена (достоверность 2)  [A30B2081], AccurateRip вернул [0451D4ED]  (AR v2)
     Копирование... OK

Трек  7

     Имя файла E:\This EAC has made Federal\2 UNLIMITED - Break The Chain.wav

     Длина предзазора  0:00:03.00

     Пиковый уровень 99.4 %
     Скорость извлечения 8.5 X
     Качество трека 100.0 %
     CRC теста 10CB7B29
     CRC копии 10CB7B29
     Точность не определена (достоверность 2)  [154C79A4], AccurateRip вернул [CFEC1024]  (AR v2)
     Копирование... OK

Трек  8

     Имя файла E:\This EAC has made Federal\2 UNLIMITED - Kiss Me Bliss Me.wav

     Длина предзазора  0:00:03.06

     Пиковый уровень 99.4 %
     Скорость извлечения 8.9 X
     Качество трека 100.0 %
     CRC теста 86C3F7BB
     CRC копии 86C3F7BB
     Точность не определена (достоверность 2)  [7B4C8ED4], AccurateRip вернул [80CDCBA7]  (AR v2)
     Копирование... OK

Трек  9

     Имя файла E:\This EAC has made Federal\2 UNLIMITED - Throw The Groove Down.wav

     Длина предзазора  0:00:03.00

     Пиковый уровень 99.4 %
     Скорость извлечения 9.4 X
     Качество трека 100.0 %
     CRC теста CE2B27E5
     CRC копии CE2B27E5
     Точность не определена (достоверность 2)  [6694BDB0], AccurateRip вернул [356F546D]  (AR v2)
     Копирование... OK

Трек 10

     Имя файла E:\This EAC has made Federal\2 UNLIMITED - R.U.O.K.wav

     Длина предзазора  0:00:03.05

     Пиковый уровень 99.4 %
     Скорость извлечения 9.7 X
     Качество трека 100.0 %
     CRC теста 6A40F7AE
     CRC копии 6A40F7AE
     Точность не определена (достоверность 2)  [1095CF31], AccurateRip вернул [636F3542]  (AR v2)
     Копирование... OK

Трек 11

     Имя файла E:\This EAC has made Federal\2 UNLIMITED - Let The Beat Control Your Body.wav

     Длина предзазора  0:00:03.00

     Пиковый уровень 99.4 %
     Скорость извлечения 10.0 X
     Качество трека 100.0 %
     CRC теста 291A4606
     CRC копии 291A4606
     Точность не определена (достоверность 2)  [1CD57883], AccurateRip вернул [0ABC7D99]  (AR v2)
     Копирование... OK

Трек 12

     Имя файла E:\This EAC has made Federal\2 UNLIMITED - Invite Me To Trance.wav

     Длина предзазора  0:00:03.00

     Пиковый уровень 99.4 %
     Скорость извлечения 10.2 X
     Качество трека 100.0 %
     CRC теста DAD69EE8
     CRC копии DAD69EE8
     Точность не определена (достоверность 2)  [B80DFF02], AccurateRip вернул [810FA80D]  (AR v2)
     Копирование... OK

Трек 13

     Имя файла E:\This EAC has made Federal\2 UNLIMITED - Where Are You Now.wav

     Длина предзазора  0:00:02.72

     Подозрительная позиция 0:04:05 - 0:04:06
     Подозрительная позиция 0:04:11
     Подозрительная позиция 0:04:13 - 0:04:14

     Пиковый уровень 99.4 %
     Скорость извлечения 0.2 X
     Качество трека 98.4 %
     CRC теста EA13CF26
     CRC копии 27CCAD14
     Точность не определена (достоверность 2)  [3DD72884], AccurateRip вернул [5574C7A6]  (AR v2)
     Копирование завершено

Трек 14

     Имя файла E:\This EAC has made Federal\2 UNLIMITED - Shelter For A Rainy Day.wav

     Длина предзазора  0:00:02.71

     Подозрительная позиция 0:00:12
     Подозрительная позиция 0:00:15
     Подозрительная позиция 0:00:21
     Подозрительная позиция 0:00:31
     Подозрительная позиция 0:00:34
     Подозрительная позиция 0:00:39
     Подозрительная позиция 0:00:44

     Пиковый уровень 99.4 %
     Скорость извлечения 0.1 X
     Качество трека 97.9 %
     CRC теста 4808C3B5
     CRC копии C37E9B39
     Точность не определена (достоверность 2)  [D14C27EF], AccurateRip вернул [834A580A]  (AR v2)
     Копирование завершено

Ни один трек не прошёл проверки на точность

Были ошибки

Конец отчёта

==== Контрольная сумма отчёта A034A271D762C1038F28CB0F9967DF6E342B35B279176D0463A2D2BA20460339 ====

Код:

Exact Audio Copy V1.0 beta 3 from 29. August 2011

Отчёт EAC об извлечении, выполненном 19. августа 2018, 15:21

2 UNLIMITED / No Limits (UK Album) 10.05.1993

Дисковод: ASUS    DRW-2014L1T   Adapter: 2  ID: 0

Режим чтения                 : Достоверность
Использование точного потока : Да
Отключение кэша аудио        : Да
Использование указателей C2  : Нет

Коррекция смещения при чтении                     : 6
Способность читать области Lead-in и Lead-out     : Нет
Заполнение пропущенных сэмплов тишиной            : Да
Удаление блоков с тишиной в начале и конце        : Нет
При вычислениях CRC использовались нулевые сэмплы : Да
Интерфейс                                         : Встроенный Win32-интерфейс для Win NT/2000
Обработка зазоров                                 : Добавлено к предыдущему треку

Выходной формат          : Пользовательский кодировщик
Выбранный битрейт        : 1024 kBit/s
Качество                 : Высокий
Добавление ID3-тега      : Нет
Утилита сжатия           : C:\Program Files (x86)\Exact Audio Copy\FLAC\FLAC.EXE
Дополнительные параметры : -6 -V -T "ARTIST=%artist%" -T "TITLE=%title%" -T "ALBUM=%albumtitle%" -T "DATE=%year%" -T "TRACKNUMBER=%tracknr%" -T "GENRE=%genre%" -T "COMMENT=%comment%" -T "BAND=%albuminterpret%" -T "ALBUMARTIST=%albuminterpret%" -T "COMPOSER=%composer%" %haslyrics%--tag-from-file=LYRICS="%lyricsfile%"%haslyrics% -T "DISCNUMBER=%cdnumber%" -T "TOTALDISCS=%totalcds%" -T "TOTALTRACKS=%numtracks%" %hascover%--picture="%coverfile%"%hascover% %source% -o %dest%

TOC извлечённого CD

     Трек |   Старт  | Длительность | Начальный сектор | Конечный сектор
    ---------------------------------------------------------------------
       1  |  0:00.33 |    3:48.00   |          33      |      17132     
       2  |  3:48.33 |    4:34.25   |       17133      |      37707     
       3  |  8:22.58 |    3:59.25   |       37708      |      55657     
       4  | 12:22.08 |    3:29.25   |       55658      |      71357     
       5  | 15:51.33 |    3:30.50   |       71358      |      87157     
       6  | 19:22.08 |    3:54.25   |       87158      |     104732     
       7  | 23:16.33 |    3:21.50   |      104733      |     119857     
       8  | 26:38.08 |    3:32.25   |      119858      |     135782     
       9  | 30:10.33 |    3:53.00   |      135783      |     153257     
      10  | 34:03.33 |    3:28.25   |      153258      |     168882     
      11  | 37:31.58 |    3:44.50   |      168883      |     185732     
      12  | 41:16.33 |    4:10.00   |      185733      |     204482     
      13  | 45:26.33 |    5:05.25   |      204483      |     227382     
      14  | 50:31.58 |    5:15.00   |      227383      |     251007     

Трек  1

     Имя файла E:\This EAC has made Federal\2 UNLIMITED - 1 - No Limit.wav

     Длина предзазора  0:00:02.33

     Пиковый уровень 100.0 %
     Скорость извлечения 3.3 X
     Качество трека 100.0 %
     CRC теста D749CFA7
     CRC копии D749CFA7
     Точное извлечение (достоверность 25)  [158F35E7]  (AR v2)
     Копирование... OK

Трек  2

     Имя файла E:\This EAC has made Federal\2 UNLIMITED - 2 - Tribal Dance.wav

     Длина предзазора  0:00:01.33

     Пиковый уровень 100.0 %
     Скорость извлечения 3.8 X
     Качество трека 100.0 %
     CRC теста 264DFE86
     CRC копии 264DFE86
     Точное извлечение (достоверность 26)  [6BDDA521]  (AR v2)
     Копирование... OK

Трек  3

     Имя файла E:\This EAC has made Federal\2 UNLIMITED - 3 - Mysterious.wav

     Длина предзазора  0:00:02.25

     Пиковый уровень 100.0 %
     Скорость извлечения 4.1 X
     Качество трека 100.0 %
     CRC теста 628EAE30
     CRC копии 628EAE30
     Точное извлечение (достоверность 25)  [98C6CF87]  (AR v2)
     Копирование... OK

Трек  4

     Имя файла E:\This EAC has made Federal\2 UNLIMITED - 4 - Faces.wav

     Длина предзазора  0:00:02.30

     Пиковый уровень 92.1 %
     Скорость извлечения 4.3 X
     Качество трека 100.0 %
     CRC теста 0BD2B5AC
     CRC копии 0BD2B5AC
     Точное извлечение (достоверность 25)  [970F53DE]  (AR v2)
     Копирование... OK

Трек  5

     Имя файла E:\This EAC has made Federal\2 UNLIMITED - 5 - Maximum Overdrive.wav

     Длина предзазора  0:00:01.63

     Пиковый уровень 97.8 %
     Скорость извлечения 4.5 X
     Качество трека 100.0 %
     CRC теста AA6A6F66
     CRC копии AA6A6F66
     Точное извлечение (достоверность 25)  [C98EFC80]  (AR v2)
     Копирование... OK

Трек  6

     Имя файла E:\This EAC has made Federal\2 UNLIMITED - 6 - The Power Age.wav

     Длина предзазора  0:00:01.50

     Пиковый уровень 100.0 %
     Скорость извлечения 4.9 X
     Качество трека 100.0 %
     CRC теста 6CCBF999
     CRC копии 6CCBF999
     Точное извлечение (достоверность 24)  [63849CAF]  (AR v2)
     Копирование... OK

Трек  7

     Имя файла E:\This EAC has made Federal\2 UNLIMITED - 7 - Break The Chain.wav

     Длина предзазора  0:00:01.38

     Пиковый уровень 100.0 %
     Скорость извлечения 4.9 X
     Качество трека 100.0 %
     CRC теста 3E11E420
     CRC копии 3E11E420
     Точное извлечение (достоверность 25)  [E9FDC4ED]  (AR v2)
     Копирование... OK

Трек  8

     Имя файла E:\This EAC has made Federal\2 UNLIMITED - 8 - Kiss Me Bliss Me.wav

     Длина предзазора  0:00:01.70

     Пиковый уровень 100.0 %
     Скорость извлечения 5.3 X
     Качество трека 100.0 %
     CRC теста 520C347C
     CRC копии 520C347C
     Точное извлечение (достоверность 24)  [8C6D2741]  (AR v2)
     Копирование... OK

Трек  9

     Имя файла E:\This EAC has made Federal\2 UNLIMITED - 9 - Throw The Groove Down.wav

     Длина предзазора  0:00:01.18

     Пиковый уровень 84.5 %
     Скорость извлечения 5.5 X
     Качество трека 100.0 %
     CRC теста B4960DE6
     CRC копии B4960DE6
     Точное извлечение (достоверность 25)  [31D10432]  (AR v2)
     Копирование... OK

Трек 10

     Имя файла E:\This EAC has made Federal\2 UNLIMITED - 10 - R.U.O.K..wav

     Длина предзазора  0:00:02.05

     Пиковый уровень 100.0 %
     Скорость извлечения 5.6 X
     Качество трека 100.0 %
     CRC теста 87993DF0
     CRC копии 87993DF0
     Точное извлечение (достоверность 25)  [8FD7A314]  (AR v2)
     Копирование... OK

Трек 11

     Имя файла E:\This EAC has made Federal\2 UNLIMITED - 11 - Let The Beat Control Your Body.wav

     Длина предзазора  0:00:00.60

     Пиковый уровень 94.0 %
     Скорость извлечения 5.9 X
     Качество трека 100.0 %
     CRC теста 167CF1BF
     CRC копии 167CF1BF
     Точное извлечение (достоверность 25)  [D9D23B2B]  (AR v2)
     Копирование... OK

Трек 12

     Имя файла E:\This EAC has made Federal\2 UNLIMITED - 12 - Invite Me To Trance.wav

     Длина предзазора  0:00:01.30

     Пиковый уровень 86.2 %
     Скорость извлечения 4.2 X
     Качество трека 99.9 %
     CRC теста A5F8D6F4
     CRC копии A5F8D6F4
     Точное извлечение (достоверность 25)  [78440056]  (AR v2)
     Копирование... OK

Трек 13

     Имя файла E:\This EAC has made Federal\2 UNLIMITED - 13 - Where Are You Now.wav

     Длина предзазора  0:00:01.03

     Пиковый уровень 80.1 %
     Скорость извлечения 6.6 X
     Качество трека 100.0 %
     CRC теста 886AB0BC
     CRC копии 886AB0BC
     Точное извлечение (достоверность 25)  [EDEEBA84]  (AR v2)
     Копирование... OK

Трек 14

     Имя файла E:\This EAC has made Federal\2 UNLIMITED - 14 - Shelter For A Rainy Day.wav

     Длина предзазора  0:00:02.13

     Пиковый уровень 86.0 %
     Скорость извлечения 6.8 X
     Качество трека 100.0 %
     CRC теста 14399192
     CRC копии 14399192
     Точное извлечение (достоверность 25)  [5E12E0E3]  (AR v2)
     Копирование... OK

Все треки извлечены точно

Ошибок не произошло

Конец отчёта

==== Контрольная сумма отчёта 2BDC22D53CDC0045C47C82FD9DD1956B0D47527DDDF9111872A04A24AD1B3178 ====

Код:

Exact Audio Copy V1.0 beta 3 from 29. August 2011

Отчёт EAC об извлечении, выполненном 27. сентября 2014, 17:13

2 UNLIMITED / Let The Beat Control Your Body (Single)

Дисковод: ASUS    DRW-2014L1T   Adapter: 4  ID: 0

Режим чтения                 : Достоверность
Использование точного потока : Да
Отключение кэша аудио        : Да
Использование указателей C2  : Нет

Коррекция смещения при чтении                     : 6
Способность читать области Lead-in и Lead-out     : Нет
Заполнение пропущенных сэмплов тишиной            : Да
Удаление блоков с тишиной в начале и конце        : Нет
При вычислениях CRC использовались нулевые сэмплы : Да
Интерфейс                                         : Встроенный Win32-интерфейс для Win NT/2000
Обработка зазоров                                 : Добавлено к предыдущему треку

Выходной формат          : Пользовательский кодировщик
Выбранный битрейт        : 1024 kBit/s
Качество                 : Высокий
Добавление ID3-тега      : Нет
Утилита сжатия           : C:\Program Files\Exact Audio Copy\FLAC\FLAC.EXE
Дополнительные параметры : -6 -V -T "ARTIST=%artist%" -T "TITLE=%title%" -T "ALBUM=%albumtitle%" -T "DATE=%year%" -T "TRACKNUMBER=%tracknr%" -T "GENRE=%genre%" -T "COMMENT=%comment%" -T "BAND=%albuminterpret%" -T "ALBUMARTIST=%albuminterpret%" -T "COMPOSER=%composer%" %haslyrics%--tag-from-file=LYRICS="%lyricsfile%"%haslyrics% -T "DISCNUMBER=%cdnumber%" -T "TOTALDISCS=%totalcds%" -T "TOTALTRACKS=%numtracks%" %hascover%--picture="%coverfile%"%hascover% %source% -o %dest%

TOC извлечённого CD

     Трек |   Старт  | Длительность | Начальный сектор | Конечный сектор
    ---------------------------------------------------------------------
       1  |  0:00.00 |    3:40.25   |           0      |      16524     
       2  |  3:40.25 |    5:12.50   |       16525      |      39974     
       3  |  8:53.00 |    6:00.50   |       39975      |      67024     
       4  | 14:53.50 |    5:09.00   |       67025      |      90199     
       5  | 20:02.50 |    2:17.30   |       90200      |     100504     
       6  | 22:20.05 |    0:46.35   |      100505      |     103989     
       7  | 23:06.40 |    0:56.62   |      103990      |     108251     
       8  | 24:03.27 |    0:56.60   |      108252      |     112511     
       9  | 25:00.12 |    1:28.40   |      112512      |     119151     

Трек  1

     Имя файла E:\This EAC has made Federal\2 UNLIMITED - 1 - Let The Beat Control Your Body (Airplay Edit).wav

     Длина предзазора  0:00:02.00

     Пиковый уровень 97.7 %
     Скорость извлечения 5.6 X
     Качество трека 100.0 %
     CRC теста 75D41187
     CRC копии 75D41187
     Точное извлечение (достоверность 21)  [E74EC29D]  (AR v2)
     Копирование... OK

Трек  2

     Имя файла E:\This EAC has made Federal\2 UNLIMITED - 2 - Let The Beat Control Your Body (X-Out In Trance Remix).wav

     Длина предзазора  0:00:01.15

     Пиковый уровень 97.7 %
     Скорость извлечения 6.4 X
     Качество трека 100.0 %
     CRC теста BF15216B
     CRC копии BF15216B
     Точное извлечение (достоверность 18)  [0DE37EBE]  (AR v2)
     Копирование... OK

Трек  3

     Имя файла E:\This EAC has made Federal\2 UNLIMITED - 3 - Let The Beat Control Your Body (Extended).wav

     Длина предзазора  0:00:00.63

     Пиковый уровень 97.7 %
     Скорость извлечения 7.3 X
     Качество трека 100.0 %
     CRC теста 4940791A
     CRC копии 4940791A
     Точное извлечение (достоверность 19)  [034CAFDE]  (AR v2)
     Копирование... OK

Трек  4

     Имя файла E:\This EAC has made Federal\2 UNLIMITED - 4 - Let The Beat Control Your Body (X-Out In Rio).wav

     Длина предзазора  0:00:01.10

     Пиковый уровень 97.7 %
     Скорость извлечения 7.8 X
     Качество трека 100.0 %
     CRC теста B3EDD376
     CRC копии B3EDD376
     Точное извлечение (достоверность 18)  [540A99F0]  (AR v2)
     Копирование... OK

Трек  5

     Имя файла E:\This EAC has made Federal\2 UNLIMITED - 5 - Get Ready For No Limits (Murphy's Megamix Part 2) (Faces).wav

     Длина предзазора  0:00:00.35

     Пиковый уровень 98.2 %
     Скорость извлечения 7.1 X
     Качество трека 100.0 %
     CRC теста 124D4394
     CRC копии 124D4394
     Точное извлечение (достоверность 18)  [2B1F2603]  (AR v2)
     Копирование... OK

Трек  6

     Имя файла E:\This EAC has made Federal\2 UNLIMITED - 6 - Get Ready For No Limits (Murphy's Megamix Part 2) (Tribal Dance).wav

     Пиковый уровень 80.0 %
     Скорость извлечения 2.9 X
     Качество трека 99.7 %
     CRC теста 188AB0B4
     CRC копии 188AB0B4
     Точное извлечение (достоверность 18)  [3C204FDE]  (AR v2)
     Копирование... OK

Трек  7

     Имя файла E:\This EAC has made Federal\2 UNLIMITED - 7 - Get Ready For No Limits (Murphy's Megamix Part 2) (Maximum Overdrive).wav

     Пиковый уровень 91.3 %
     Скорость извлечения 4.7 X
     Качество трека 100.0 %
     CRC теста 91D58781
     CRC копии 91D58781
     Точное извлечение (достоверность 18)  [2C619DC0]  (AR v2)
     Копирование... OK

Трек  8

     Имя файла E:\This EAC has made Federal\2 UNLIMITED - 8 - Get Ready For No Limits (Murphy's Megamix Part 2) (Get Ready For This).wav

     Пиковый уровень 91.1 %
     Скорость извлечения 4.5 X
     Качество трека 100.0 %
     CRC теста 670AC61C
     CRC копии 670AC61C
     Точное извлечение (достоверность 18)  [D180E532]  (AR v2)
     Копирование... OK

Трек  9

     Имя файла E:\This EAC has made Federal\2 UNLIMITED - 9 - Get Ready For No Limits (Murphy's Megamix Part 2) (No Limit).wav

     Пиковый уровень 97.7 %
     Скорость извлечения 5.6 X
     Качество трека 100.0 %
     CRC теста DA213DED
     CRC копии DA213DED
     Точное извлечение (достоверность 18)  [D8EAFE27]  (AR v2)
     Копирование... OK

Все треки извлечены точно

Ошибок не произошло

Конец отчёта

==== Контрольная сумма отчёта 7A8C8245A3FE70C659EECD12C2AE3A4B6345B73EC6DCD09E4E8D200A2140B53C ====

Код:

Exact Audio Copy V1.0 beta 3 from 29. August 2011

Отчёт EAC об извлечении, выполненном 17. мая 2013, 10:23

2 UNLIMITED / Real Things

Дисковод: ASUS    DRW-2014L1T   Adapter: 4  ID: 0

Режим чтения                 : Достоверность
Использование точного потока : Да
Отключение кэша аудио        : Да
Использование указателей C2  : Нет

Коррекция смещения при чтении                     : 6
Способность читать области Lead-in и Lead-out     : Нет
Заполнение пропущенных сэмплов тишиной            : Да
Удаление блоков с тишиной в начале и конце        : Нет
При вычислениях CRC использовались нулевые сэмплы : Да
Интерфейс                                         : Встроенный Win32-интерфейс для Win NT/2000
Обработка зазоров                                 : Добавлено к предыдущему треку

Выходной формат          : Пользовательский кодировщик
Выбранный битрейт        : 1024 kBit/s
Качество                 : Высокий
Добавление ID3-тега      : Нет
Утилита сжатия           : C:\Program Files\Exact Audio Copy\FLAC\FLAC.EXE
Дополнительные параметры : -6 -V -T "ARTIST=%artist%" -T "TITLE=%title%" -T "ALBUM=%albumtitle%" -T "DATE=%year%" -T "TRACKNUMBER=%tracknr%" -T "GENRE=%genre%" -T "COMMENT=%comment%" -T "BAND=%albuminterpret%" -T "ALBUMARTIST=%albuminterpret%" -T "COMPOSER=%composer%" %haslyrics%--tag-from-file=LYRICS="%lyricsfile%"%haslyrics% -T "DISCNUMBER=%cdnumber%" -T "TOTALDISCS=%totalcds%" -T "TOTALTRACKS=%numtracks%" %hascover%--picture="%coverfile%"%hascover% %source% -o %dest%

TOC извлечённого CD

     Трек |   Старт  | Длительность | Начальный сектор | Конечный сектор
    ---------------------------------------------------------------------
       1  |  0:00.00 |    3:43.63   |           0      |      16787     
       2  |  3:43.63 |    4:13.50   |       16788      |      35812     
       3  |  7:57.38 |    5:15.50   |       35813      |      59487     
       4  | 13:13.13 |    5:03.00   |       59488      |      82212     
       5  | 18:16.13 |    4:38.63   |       82213      |     103125     
       6  | 22:55.01 |    4:27.00   |      103126      |     123150     
       7  | 27:22.01 |    4:15.00   |      123151      |     142275     
       8  | 31:37.01 |    3:56.25   |      142276      |     160000     
       9  | 35:33.26 |    4:34.00   |      160001      |     180550     
      10  | 40:07.26 |    3:29.63   |      180551      |     196288     
      11  | 43:37.14 |    4:09.13   |      196289      |     214976     
      12  | 47:46.27 |    5:02.25   |      214977      |     237651     
      13  | 52:48.52 |    4:41.38   |      237652      |     258764     

Трек  1

     Имя файла E:\This EAC has made Federal\2 UNLIMITED - The Real Thing.wav

     Длина предзазора  0:00:02.00

     Пиковый уровень 100.0 %
     Скорость извлечения 5.0 X
     Качество трека 100.0 %
     CRC теста BDA1607B
     CRC копии BDA1607B
     Трек не обнаружен в базе AccurateRip
     Копирование... OK

Трек  2

     Имя файла E:\This EAC has made Federal\2 UNLIMITED - Do What I Like.wav

     Длина предзазора  0:00:03.00

     Пиковый уровень 100.0 %
     Скорость извлечения 5.6 X
     Качество трека 100.0 %
     CRC теста 9EA2F550
     CRC копии 9EA2F550
     Трек не обнаружен в базе AccurateRip
     Копирование... OK

Трек  3

     Имя файла E:\This EAC has made Federal\2 UNLIMITED - Here I Go.wav

     Длина предзазора  0:00:03.00

     Пиковый уровень 100.0 %
     Скорость извлечения 6.4 X
     Качество трека 100.0 %
     CRC теста 67DD299D
     CRC копии 67DD299D
     Трек не обнаружен в базе AccurateRip
     Копирование... OK

Трек  4

     Имя файла E:\This EAC has made Federal\2 UNLIMITED - Burning Like Fire.wav

     Длина предзазора  0:00:03.00

     Пиковый уровень 100.0 %
     Скорость извлечения 7.0 X
     Качество трека 100.0 %
     CRC теста E575B702
     CRC копии E575B702
     Трек не обнаружен в базе AccurateRip
     Копирование... OK

Трек  5

     Имя файла E:\This EAC has made Federal\2 UNLIMITED - Info Superhighway.wav

     Длина предзазора  0:00:03.00

     Пиковый уровень 100.0 %
     Скорость извлечения 7.5 X
     Качество трека 100.0 %
     CRC теста 5538AEFE
     CRC копии 5538AEFE
     Трек не обнаружен в базе AccurateRip
     Копирование... OK

Трек  6

     Имя файла E:\This EAC has made Federal\2 UNLIMITED - Hypnotised.wav

     Длина предзазора  0:00:03.00

     Пиковый уровень 100.0 %
     Скорость извлечения 5.8 X
     Качество трека 99.9 %
     CRC теста E7949522
     CRC копии E7949522
     Трек не обнаружен в базе AccurateRip
     Копирование... OK

Трек  7

     Имя файла E:\This EAC has made Federal\2 UNLIMITED - Tuning Into Something Wild.wav

     Длина предзазора  0:00:03.00

     Пиковый уровень 100.0 %
     Скорость извлечения 8.1 X
     Качество трека 100.0 %
     CRC теста 6BF86D31
     CRC копии 6BF86D31
     Трек не обнаружен в базе AccurateRip
     Копирование... OK

Трек  8

     Имя файла E:\This EAC has made Federal\2 UNLIMITED - Escape In Music.wav

     Длина предзазора  0:00:03.00

     Пиковый уровень 100.0 %
     Скорость извлечения 8.3 X
     Качество трека 100.0 %
     CRC теста E593F9E7
     CRC копии E593F9E7
     Трек не обнаружен в базе AccurateRip
     Копирование... OK

Трек  9

     Имя файла E:\This EAC has made Federal\2 UNLIMITED - Sensuality.wav

     Длина предзазора  0:00:03.00

     Подозрительная позиция 0:03:14
     Подозрительная позиция 0:03:50
     Подозрительная позиция 0:03:56
     Подозрительная позиция 0:04:01 - 0:04:02
     Подозрительная позиция 0:04:16
     Подозрительная позиция 0:04:18 - 0:04:19
     Подозрительная позиция 0:04:21
     Подозрительная позиция 0:04:26

     Пиковый уровень 100.0 %
     Скорость извлечения 0.1 X
     Качество трека 97.4 %
     CRC теста C7EE0B34
     CRC копии E2DF038A
     Трек не обнаружен в базе AccurateRip
     Копирование завершено

Трек 10

     Имя файла E:\This EAC has made Federal\2 UNLIMITED - No One.wav

     Длина предзазора  0:00:03.00

     Подозрительная позиция 0:00:01
     Подозрительная позиция 0:00:03
     Подозрительная позиция 0:00:10
     Подозрительная позиция 0:00:15 - 0:00:18
     Подозрительная позиция 0:00:24 - 0:00:28
     Подозрительная позиция 0:00:30
     Подозрительная позиция 0:00:32 - 0:00:33
     Подозрительная позиция 0:00:35 - 0:00:38
     Подозрительная позиция 0:00:40 - 0:00:42
     Подозрительная позиция 0:00:45 - 0:00:46
     Подозрительная позиция 0:00:48 - 0:00:50
     Подозрительная позиция 0:00:52 - 0:00:54
     Подозрительная позиция 0:00:57 - 0:01:01
     Подозрительная позиция 0:01:04 - 0:01:06
     Подозрительная позиция 0:01:10
     Подозрительная позиция 0:01:13
     Подозрительная позиция 0:01:15 - 0:01:17
     Подозрительная позиция 0:01:19 - 0:01:20
     Подозрительная позиция 0:01:25
     Подозрительная позиция 0:01:28 - 0:01:37
     Подозрительная позиция 0:01:43
     Подозрительная позиция 0:01:46 - 0:01:47
     Подозрительная позиция 0:01:49
     Подозрительная позиция 0:01:51
     Подозрительная позиция 0:01:54
     Подозрительная позиция 0:02:01
     Подозрительная позиция 0:02:03 - 0:02:04
     Подозрительная позиция 0:02:06
     Подозрительная позиция 0:02:13
     Подозрительная позиция 0:02:17 - 0:02:19
     Подозрительная позиция 0:02:40
     Подозрительная позиция 0:02:51

     Пиковый уровень 100.0 %
     Скорость извлечения 0.0 X
     Качество трека 94.3 %
     CRC теста 4F829C62
     CRC копии 268D6A42
     Трек не обнаружен в базе AccurateRip
     Копирование завершено

Трек 11

     Имя файла E:\This EAC has made Federal\2 UNLIMITED - Face To Face.wav

     Длина предзазора  0:00:03.00

     Подозрительная позиция 0:01:03
     Подозрительная позиция 0:03:27
     Подозрительная позиция 0:03:45
     Подозрительная позиция 0:03:59

     Пиковый уровень 100.0 %
     Скорость извлечения 0.4 X
     Качество трека 97.9 %
     CRC теста 378EF520
     CRC копии 47937032
     Трек не обнаружен в базе AccurateRip
     Копирование завершено

Трек 12

     Имя файла E:\This EAC has made Federal\2 UNLIMITED - What's Mine Is Mine.wav

     Длина предзазора  0:00:03.00

     Подозрительная позиция 0:00:08
     Подозрительная позиция 0:00:12
     Подозрительная позиция 0:00:15
     Подозрительная позиция 0:00:22 - 0:00:23

     Пиковый уровень 100.0 %
     Скорость извлечения 0.4 X
     Качество трека 98.4 %
     CRC теста 86FC5A19
     CRC копии 70636EBC
     Трек не обнаружен в базе AccurateRip
     Копирование завершено

Трек 13

     Имя файла E:\This EAC has made Federal\2 UNLIMITED - Nothing Like The Rain.wav

     Длина предзазора  0:00:03.00

     Пиковый уровень 100.0 %
     Скорость извлечения 7.6 X
     Качество трека 99.9 %
     CRC теста EA6E52D9
     CRC копии EA6E52D9
     Трек не обнаружен в базе AccurateRip
     Копирование... OK

Ни одного трека нет в базе AccurateRip

Были ошибки

Конец отчёта

==== Контрольная сумма отчёта 7A4004EC08042989CB3092F4DA0BC669AB4A34A685253643DF8F02E2CB2BA44C ====

Код:

Exact Audio Copy V1.0 beta 3 from 29. August 2011

Отчёт EAC об извлечении, выполненном 17. мая 2013, 13:41

2 UNLIMITED / The Very Best

Дисковод: ASUS    DRW-2014L1T   Adapter: 4  ID: 0

Режим чтения                 : Достоверность
Использование точного потока : Да
Отключение кэша аудио        : Да
Использование указателей C2  : Нет

Коррекция смещения при чтении                     : 6
Способность читать области Lead-in и Lead-out     : Нет
Заполнение пропущенных сэмплов тишиной            : Да
Удаление блоков с тишиной в начале и конце        : Нет
При вычислениях CRC использовались нулевые сэмплы : Да
Интерфейс                                         : Встроенный Win32-интерфейс для Win NT/2000
Обработка зазоров                                 : Добавлено к предыдущему треку

Выходной формат          : Пользовательский кодировщик
Выбранный битрейт        : 1024 kBit/s
Качество                 : Высокий
Добавление ID3-тега      : Нет
Утилита сжатия           : C:\Program Files\Exact Audio Copy\FLAC\FLAC.EXE
Дополнительные параметры : -6 -V -T "ARTIST=%artist%" -T "TITLE=%title%" -T "ALBUM=%albumtitle%" -T "DATE=%year%" -T "TRACKNUMBER=%tracknr%" -T "GENRE=%genre%" -T "COMMENT=%comment%" -T "BAND=%albuminterpret%" -T "ALBUMARTIST=%albuminterpret%" -T "COMPOSER=%composer%" %haslyrics%--tag-from-file=LYRICS="%lyricsfile%"%haslyrics% -T "DISCNUMBER=%cdnumber%" -T "TOTALDISCS=%totalcds%" -T "TOTALTRACKS=%numtracks%" %hascover%--picture="%coverfile%"%hascover% %source% -o %dest%

TOC извлечённого CD

     Трек |   Старт  | Длительность | Начальный сектор | Конечный сектор
    ---------------------------------------------------------------------
       1  |  0:00.00 |    3:41.42   |           0      |      16616     
       2  |  3:41.42 |    3:45.18   |       16617      |      33509     
       3  |  7:26.60 |    4:09.15   |       33510      |      52199     
       4  | 11:36.00 |    4:31.70   |       52200      |      72594     
       5  | 16:07.70 |    3:51.05   |       72595      |      89924     
       6  | 19:59.00 |    4:01.37   |       89925      |     108036     
       7  | 24:00.37 |    3:46.05   |      108037      |     124991     
       8  | 27:46.42 |    4:34.33   |      124992      |     145574     
       9  | 32:21.00 |    4:05.45   |      145575      |     163994     
      10  | 36:26.45 |    4:15.42   |      163995      |     183161     
      11  | 40:42.12 |    4:13.00   |      183162      |     202136     
      12  | 44:55.12 |    5:00.13   |      202137      |     224649     
      13  | 49:55.25 |    4:41.05   |      224650      |     245729     
      14  | 54:36.30 |    4:24.45   |      245730      |     265574     

Трек  1

     Имя файла E:\This EAC has made Federal\2 UNLIMITED - Real Thing.wav

     Длина предзазора  0:00:02.00

     Пиковый уровень 65.5 %
     Скорость извлечения 5.2 X
     Качество трека 100.0 %
     CRC теста 218430AA
     CRC копии 218430AA
     Трек не обнаружен в базе AccurateRip
     Копирование... OK

Трек  2

     Имя файла E:\This EAC has made Federal\2 UNLIMITED - No Limit.wav

     Длина предзазора  0:00:01.17

     Пиковый уровень 63.8 %
     Скорость извлечения 5.7 X
     Качество трека 100.0 %
     CRC теста C774F34B
     CRC копии C774F34B
     Трек не обнаружен в базе AccurateRip
     Копирование... OK

Трек  3

     Имя файла E:\This EAC has made Federal\2 UNLIMITED - Twilight Zone.wav

     Длина предзазора  0:00:01.08

     Пиковый уровень 64.6 %
     Скорость извлечения 6.3 X
     Качество трека 100.0 %
     CRC теста A2784B02
     CRC копии A2784B02
     Трек не обнаружен в базе AccurateRip
     Копирование... OK

Трек  4

     Имя файла E:\This EAC has made Federal\2 UNLIMITED - Tribal Dance.wav

     Длина предзазора  0:00:01.25

     Пиковый уровень 72.4 %
     Скорость извлечения 5.2 X
     Качество трека 99.9 %
     CRC теста A77B8878
     CRC копии A77B8878
     Трек не обнаружен в базе AccurateRip
     Копирование... OK

Трек  5

     Имя файла E:\This EAC has made Federal\2 UNLIMITED - Faces.wav

     Длина предзазора  0:00:00.58

     Пиковый уровень 69.7 %
     Скорость извлечения 5.2 X
     Качество трека 99.9 %
     CRC теста 7FDF29D8
     CRC копии 7FDF29D8
     Трек не обнаружен в базе AccurateRip
     Копирование... OK

Трек  6

     Имя файла E:\This EAC has made Federal\2 UNLIMITED - Maximum Overdrive.wav

     Длина предзазора  0:00:01.48

     Пиковый уровень 68.9 %
     Скорость извлечения 7.5 X
     Качество трека 100.0 %
     CRC теста 203FAE81
     CRC копии 203FAE81
     Трек не обнаружен в базе AccurateRip
     Копирование... OK

Трек  7

     Имя файла E:\This EAC has made Federal\2 UNLIMITED - Get Ready For This.wav

     Длина предзазора  0:00:02.00

     Пиковый уровень 68.8 %
     Скорость извлечения 5.8 X
     Качество трека 99.9 %
     CRC теста 8FAF3D2F
     CRC копии 8FAF3D2F
     Трек не обнаружен в базе AccurateRip
     Копирование... OK

Трек  8

     Имя файла E:\This EAC has made Federal\2 UNLIMITED - The Magic Friend.wav

     Длина предзазора  0:00:02.55

     Пиковый уровень 71.1 %
     Скорость извлечения 8.3 X
     Качество трека 100.0 %
     CRC теста 9B783910
     CRC копии 9B783910
     Трек не обнаружен в базе AccurateRip
     Копирование... OK

Трек  9

     Имя файла E:\This EAC has made Federal\2 UNLIMITED - Let The Beat Control Your Body.wav

     Длина предзазора  0:00:04.13

     Пиковый уровень 72.5 %
     Скорость извлечения 8.6 X
     Качество трека 100.0 %
     CRC теста 45FCAC26
     CRC копии 45FCAC26
     Трек не обнаружен в базе AccurateRip
     Копирование... OK

Трек 10

     Имя файла E:\This EAC has made Federal\2 UNLIMITED - R.U.O.K..wav

     Длина предзазора  0:00:02.50

     Пиковый уровень 75.1 %
     Скорость извлечения 4.9 X
     Качество трека 99.9 %
     CRC теста 20D98594
     CRC копии 20D98594
     Трек не обнаружен в базе AccurateRip
     Копирование... OK

Трек 11

     Имя файла E:\This EAC has made Federal\2 UNLIMITED - Do What I Like.wav

     Длина предзазора  0:00:03.47

     Пиковый уровень 72.5 %
     Скорость извлечения 9.0 X
     Качество трека 100.0 %
     CRC теста 9FE42292
     CRC копии 9FE42292
     Трек не обнаружен в базе AccurateRip
     Копирование... OK

Трек 12

     Имя файла E:\This EAC has made Federal\2 UNLIMITED - Burning Like Fire.wav

     Длина предзазора  0:00:02.12

     Пиковый уровень 70.4 %
     Скорость извлечения 9.7 X
     Качество трека 100.0 %
     CRC теста 09193135
     CRC копии 09193135
     Трек не обнаружен в базе AccurateRip
     Копирование... OK

Трек 13

     Имя файла E:\This EAC has made Federal\2 UNLIMITED - Into SuperHighway.wav

     Длина предзазора  0:00:01.30

     Пиковый уровень 69.8 %
     Скорость извлечения 10.0 X
     Качество трека 100.0 %
     CRC теста A9471F68
     CRC копии A9471F68
     Трек не обнаружен в базе AccurateRip
     Копирование... OK

Трек 14

     Имя файла E:\This EAC has made Federal\2 UNLIMITED - Mysterious.wav

     Длина предзазора  0:00:03.18

     Пиковый уровень 69.1 %
     Скорость извлечения 7.7 X
     Качество трека 99.9 %
     CRC теста 977B86F6
     CRC копии 977B86F6
     Трек не обнаружен в базе AccurateRip
     Копирование... OK

Ни одного трека нет в базе AccurateRip

Ошибок не произошло

Конец отчёта

==== Контрольная сумма отчёта 7722A6EB23ABDD489D630B8EFAAFC86ABB9C3C8443F46FAD7867ED20189488DA ====

Код:

Exact Audio Copy V1.0 beta 3 from 29. August 2011

Отчёт EAC об извлечении, выполненном 17. мая 2013, 12:52

2 UNLIMITED / Hits Unlimited

Дисковод: ASUS    DRW-2014L1T   Adapter: 4  ID: 0

Режим чтения                 : Достоверность
Использование точного потока : Да
Отключение кэша аудио        : Да
Использование указателей C2  : Нет

Коррекция смещения при чтении                     : 6
Способность читать области Lead-in и Lead-out     : Нет
Заполнение пропущенных сэмплов тишиной            : Да
Удаление блоков с тишиной в начале и конце        : Нет
При вычислениях CRC использовались нулевые сэмплы : Да
Интерфейс                                         : Встроенный Win32-интерфейс для Win NT/2000
Обработка зазоров                                 : Добавлено к предыдущему треку

Выходной формат          : Пользовательский кодировщик
Выбранный битрейт        : 1024 kBit/s
Качество                 : Высокий
Добавление ID3-тега      : Нет
Утилита сжатия           : C:\Program Files\Exact Audio Copy\FLAC\FLAC.EXE
Дополнительные параметры : -6 -V -T "ARTIST=%artist%" -T "TITLE=%title%" -T "ALBUM=%albumtitle%" -T "DATE=%year%" -T "TRACKNUMBER=%tracknr%" -T "GENRE=%genre%" -T "COMMENT=%comment%" -T "BAND=%albuminterpret%" -T "ALBUMARTIST=%albuminterpret%" -T "COMPOSER=%composer%" %haslyrics%--tag-from-file=LYRICS="%lyricsfile%"%haslyrics% -T "DISCNUMBER=%cdnumber%" -T "TOTALDISCS=%totalcds%" -T "TOTALTRACKS=%numtracks%" %hascover%--picture="%coverfile%"%hascover% %source% -o %dest%

TOC извлечённого CD

     Трек |   Старт  | Длительность | Начальный сектор | Конечный сектор
    ---------------------------------------------------------------------
       1  |  0:00.30 |    3:50.60   |          30      |      17339     
       2  |  3:51.15 |    3:31.17   |       17340      |      33181     
       3  |  7:22.32 |    3:43.28   |       33182      |      49934     
       4  | 11:05.60 |    4:11.50   |       49935      |      68809     
       5  | 15:17.35 |    3:27.45   |       68810      |      84379     
       6  | 18:45.05 |    3:44.00   |       84380      |     101179     
       7  | 22:29.05 |    3:41.30   |      101180      |     117784     
       8  | 26:10.35 |    3:45.70   |      117785      |     134729     
       9  | 29:56.30 |    3:35.52   |      134730      |     150906     
      10  | 33:32.07 |    3:39.48   |      150907      |     167379     
      11  | 37:11.55 |    4:01.15   |      167380      |     185469     
      12  | 41:12.70 |    4:44.40   |      185470      |     206809     
      13  | 45:57.35 |    3:40.40   |      206810      |     223349     
      14  | 49:38.00 |    3:18.07   |      223350      |     238206     
      15  | 52:56.07 |    3:42.63   |      238207      |     254919     
      16  | 56:38.70 |    3:33.25   |      254920      |     270919     

Трек  1

     Имя файла E:\This EAC has made Federal\2 UNLIMITED - Do What's Good For Me.wav

     Длина предзазора  0:00:02.30

     Пиковый уровень 100.0 %
     Скорость извлечения 5.4 X
     Качество трека 100.0 %
     CRC теста B9E45C86
     CRC копии B9E45C86
     Трек не обнаружен в базе AccurateRip
     Копирование... OK

Трек  2

     Имя файла E:\This EAC has made Federal\2 UNLIMITED - No Limit.wav

     Пиковый уровень 100.0 %
     Скорость извлечения 5.9 X
     Качество трека 100.0 %
     CRC теста 44413D95
     CRC копии 44413D95
     Трек не обнаружен в базе AccurateRip
     Копирование... OK

Трек  3

     Имя файла E:\This EAC has made Federal\2 UNLIMITED - Get Ready For This.wav

     Пиковый уровень 100.0 %
     Скорость извлечения 6.4 X
     Качество трека 100.0 %
     CRC теста DDED19E6
     CRC копии DDED19E6
     Трек не обнаружен в базе AccurateRip
     Копирование... OK

Трек  4

     Имя файла E:\This EAC has made Federal\2 UNLIMITED - Twilight Zone.wav

     Пиковый уровень 99.4 %
     Скорость извлечения 5.1 X
     Качество трека 99.9 %
     CRC теста 3BBEC3C0
     CRC копии 3BBEC3C0
     Трек не обнаружен в базе AccurateRip
     Копирование... OK

Трек  5

     Имя файла E:\This EAC has made Federal\2 UNLIMITED - No One.wav

     Пиковый уровень 99.6 %
     Скорость извлечения 5.2 X
     Качество трека 99.9 %
     CRC теста 67587455
     CRC копии 67587455
     Трек не обнаружен в базе AccurateRip
     Копирование... OK

Трек  6

     Имя файла E:\This EAC has made Federal\2 UNLIMITED - Jump For Joy.wav

     Пиковый уровень 100.0 %
     Скорость извлечения 7.6 X
     Качество трека 100.0 %
     CRC теста 54803913
     CRC копии 54803913
     Трек не обнаружен в базе AccurateRip
     Копирование... OK

Трек  7

     Имя файла E:\This EAC has made Federal\2 UNLIMITED - Tribal Dance.wav

     Пиковый уровень 100.0 %
     Скорость извлечения 5.7 X
     Качество трека 99.9 %
     CRC теста 45F948C8
     CRC копии 45F948C8
     Трек не обнаружен в базе AccurateRip
     Копирование... OK

Трек  8

     Имя файла E:\This EAC has made Federal\2 UNLIMITED - The Magic Friend.wav

     Пиковый уровень 99.6 %
     Скорость извлечения 8.1 X
     Качество трека 100.0 %
     CRC теста D770D471
     CRC копии D770D471
     Трек не обнаружен в базе AccurateRip
     Копирование... OK

Трек  9

     Имя файла E:\This EAC has made Federal\2 UNLIMITED - Workaholic.wav

     Пиковый уровень 100.0 %
     Скорость извлечения 7.9 X
     Качество трека 100.0 %
     CRC теста BEDD532C
     CRC копии BEDD532C
     Трек не обнаружен в базе AccurateRip
     Копирование... OK

Трек 10

     Имя файла E:\This EAC has made Federal\2 UNLIMITED - Let The Beat Control Your Love.wav

     Пиковый уровень 100.0 %
     Скорость извлечения 7.3 X
     Качество трека 100.0 %
     CRC теста B4DD0B54
     CRC копии B4DD0B54
     Трек не обнаружен в базе AccurateRip
     Копирование... OK

Трек 11

     Имя файла E:\This EAC has made Federal\2 UNLIMITED - Nothing Like The Rain.wav

     Пиковый уровень 100.0 %
     Скорость извлечения 6.3 X
     Качество трека 100.0 %
     CRC теста E766A422
     CRC копии E766A422
     Трек не обнаружен в базе AccurateRip
     Копирование... OK

Трек 12

     Имя файла E:\This EAC has made Federal\2 UNLIMITED - Spread Your Love.wav

     Пиковый уровень 100.0 %
     Скорость извлечения 6.0 X
     Качество трека 99.9 %
     CRC теста FCC0109E
     CRC копии FCC0109E
     Трек не обнаружен в базе AccurateRip
     Копирование... OK

Трек 13

     Имя файла E:\This EAC has made Federal\2 UNLIMITED - The Real Thing.wav

     Пиковый уровень 99.4 %
     Скорость извлечения 6.7 X
     Качество трека 100.0 %
     CRC теста CA5A17E8
     CRC копии CA5A17E8
     Трек не обнаружен в базе AccurateRip
     Копирование... OK

Трек 14

     Имя файла E:\This EAC has made Federal\2 UNLIMITED - Here I Go.wav

     Пиковый уровень 98.3 %
     Скорость извлечения 6.7 X
     Качество трека 100.0 %
     CRC теста A68BEC29
     CRC копии A68BEC29
     Трек не обнаружен в базе AccurateRip
     Копирование... OK

Трек 15

     Имя файла E:\This EAC has made Federal\2 UNLIMITED - Maximum Overdrive.wav

     Пиковый уровень 98.6 %
     Скорость извлечения 7.0 X
     Качество трека 100.0 %
     CRC теста 013575A2
     CRC копии 013575A2
     Трек не обнаружен в базе AccurateRip
     Копирование... OK

Трек 16

     Имя файла E:\This EAC has made Federal\2 UNLIMITED - Faces.wav

     Пиковый уровень 100.0 %
     Скорость извлечения 6.0 X
     Качество трека 99.9 %
     CRC теста 654A0DC5
     CRC копии 654A0DC5
     Трек не обнаружен в базе AccurateRip
     Копирование... OK

Ни одного трека нет в базе AccurateRip

Ошибок не произошло

Конец отчёта

==== Контрольная сумма отчёта 3C8D67A4332F1F410627A9A29D508BD8AFCAB56AFE6F3542FAF78056001A1783 ====
Этот релиз я взял с витрины магазина BMG, в котором пару лет назад покупал музыку.

Внимание: были ошибки!!!

Для меломанов!
Раздача обновлена, добавлены релизы: 2 UNLIMITED - No Limits! 1993, 2 UNLIMITED - The Very Best 1994, 2 UNLIMITED - Hits Unlimited 1995.
Раздача обновлена, добавлен релиз 2 UNLIMITED - Let The Beat Control Your Body (Single) 21.01.1994
Добавлена информация по релизу 2 UNLIMITED - The Magic Friend (Single, Promo, Cardboard Sleeve) 03.08.1992
Добавлена информация по "итальянскому" релизу 2 UNLIMITED - No Limits ! (Album) 1993.
Добавлена информация по релизу 2 UNLIMITED - No Limits (UK Album) 10.05.1993.

Страница 1 из 1

new_topic  reply_topic

Текущее время: 07-Июл 14:13
Часовой пояс: GMT + 4

m Сделано с любовью PR-CY.ru Каталог webplus.info